<?xml version="1.0" standalone="no"?>
<!DOCTYPE svg PUBLIC "-//W3C//DTD SVG 1.1//EN" "http://www.w3.org/Graphics/SVG/1.1/DTD/svg11.dtd" >
<svg xmlns="http://www.w3.org/2000/svg">
<metadata>Generated by IcoMoon</metadata>
<defs>
<font id="icomoon" horiz-adv-x="1024">
<font-face units-per-em="1024" ascent="960" descent="-64" />
<missing-glyph horiz-adv-x="1024" />
<glyph unicode="&#x20;" horiz-adv-x="512" d="" />
<glyph unicode="&#xe900;" glyph-name="document" d="M844.8 38.4c0-14.138-11.462-25.6-25.6-25.6h-614.4c-14.138 0-25.6 11.462-25.6 25.6v819.2c0 14.138 11.462 25.6 25.6 25.6h307.2v-230.4c0-56.554 45.846-102.4 102.4-102.4h230.4v-512zM588.8 825.805l198.554-198.605h-172.954c-14.138 0-25.6 11.462-25.6 25.6v173.005zM891.597 631.603l-298.445 298.394c-1.331 1.331-2.97 2.355-4.352 3.584-3.523 3.324-7.269 6.404-11.213 9.216-2.048 1.382-4.403 2.304-6.554 3.482-3.635 2.048-7.219 4.301-11.059 5.939-10.196 4.072-20.986 6.459-31.949 7.066-2.406 0.154-4.762 0.717-7.219 0.717h-316.006c-56.554 0-102.4-45.846-102.4-102.4v-819.2c0-56.554 45.846-102.4 102.4-102.4h614.4c56.554 0 102.4 45.846 102.4 102.4v520.806c0 27.156-10.798 53.198-30.003 72.397z" />
<glyph unicode="&#xe901;" glyph-name="filter" d="M597.333 265.788c28.277 0 51.2-22.249 51.2-49.694s-22.923-49.694-51.2-49.694h-170.667c-28.277 0-51.2 22.249-51.2 49.694s22.923 49.694 51.2 49.694h170.667zM802.133 497.694c28.277 0 51.2-22.249 51.2-49.694s-22.923-49.694-51.2-49.694h-580.267c-28.277 0-51.2 22.249-51.2 49.694s22.923 49.694 51.2 49.694h580.267zM972.8 729.6c28.277 0 51.2-22.249 51.2-49.694s-22.923-49.694-51.2-49.694h-921.6c-28.277 0-51.2 22.249-51.2 49.694s22.923 49.694 51.2 49.694h921.6z" />
<glyph unicode="&#xe902;" glyph-name="calendar" d="M805.101 960c18.981 0 34.58-14.482 36.35-33l0.167-3.517-0.019-36.622 36.332-0.012c78.795 0 143.018-62.391 145.963-140.466l0.105-5.603v-658.712c0-80.671-65.397-146.068-146.068-146.068v0h-731.863c-80.671 0-146.068 65.397-146.068 146.068v0 658.712c0 80.671 65.397 146.068 146.068 146.068v0l37.304 0.012 0.002 36.622c0 20.168 16.349 36.517 36.517 36.517 18.981 0 34.58-14.482 36.35-33l0.167-3.517-0.025-36.622h512.179l0.021 36.622c0 20.168 16.349 36.517 36.517 36.517zM950.963 630.451h-877.952l0.023-548.383c0-38.895 30.405-70.689 68.743-72.91l4.291-0.124h731.863c40.336 0 73.034 32.699 73.034 73.034v0l-0.003 548.383zM237.683 191.971c30.3 0 54.863-24.563 54.863-54.863s-24.563-54.863-54.863-54.863c-30.3 0-54.863 24.563-54.863 54.863s24.563 54.863 54.863 54.863zM420.561 191.971c30.3 0 54.863-24.563 54.863-54.863s-24.563-54.863-54.863-54.863c-30.3 0-54.863 24.563-54.863 54.863s24.563 54.863 54.863 54.863zM603.439 191.971c30.3 0 54.863-24.563 54.863-54.863s-24.563-54.863-54.863-54.863c-30.3 0-54.863 24.563-54.863 54.863s24.563 54.863 54.863 54.863zM603.439 374.849c30.3 0 54.863-24.563 54.863-54.863s-24.563-54.863-54.863-54.863c-30.3 0-54.863 24.563-54.863 54.863s24.563 54.863 54.863 54.863zM786.317 374.849c30.3 0 54.863-24.563 54.863-54.863s-24.563-54.863-54.863-54.863c-30.3 0-54.863 24.563-54.863 54.863s24.563 54.863 54.863 54.863zM237.683 374.849c30.3 0 54.863-24.563 54.863-54.863s-24.563-54.863-54.863-54.863c-30.3 0-54.863 24.563-54.863 54.863s24.563 54.863 54.863 54.863zM420.561 374.849c30.3 0 54.863-24.563 54.863-54.863s-24.563-54.863-54.863-54.863c-30.3 0-54.863 24.563-54.863 54.863s24.563 54.863 54.863 54.863zM603.439 557.727c30.3 0 54.863-24.563 54.863-54.863s-24.563-54.863-54.863-54.863c-30.3 0-54.863 24.563-54.863 54.863s24.563 54.863 54.863 54.863zM786.317 557.727c30.3 0 54.863-24.563 54.863-54.863s-24.563-54.863-54.863-54.863c-30.3 0-54.863 24.563-54.863 54.863s24.563 54.863 54.863 54.863zM877.932 813.815h-731.863c-40.336 0-73.034-32.699-73.034-73.034v0l-0.023-37.292h877.952l0.003 37.292c0 38.895-30.405 70.689-68.743 72.91l-4.291 0.124z" />
<glyph unicode="&#xe903;" glyph-name="excel" d="M844.8 38.4c0-14.138-11.462-25.6-25.6-25.6h-614.4c-14.138 0-25.6 11.462-25.6 25.6v819.2c0 14.138 11.462 25.6 25.6 25.6h307.2v-230.4c0-56.554 45.846-102.4 102.4-102.4h230.4v-512zM588.8 825.805l198.554-198.605h-172.954c-14.138 0-25.6 11.462-25.6 25.6v173.005zM891.597 631.603l-298.445 298.394c-1.331 1.331-2.97 2.355-4.352 3.584-3.523 3.324-7.269 6.404-11.213 9.216-2.048 1.382-4.403 2.304-6.554 3.482-3.635 2.048-7.219 4.301-11.059 5.939-10.196 4.072-20.986 6.459-31.949 7.066-2.406 0.154-4.762 0.717-7.219 0.717h-316.006c-56.554 0-102.4-45.846-102.4-102.4v-819.2c0-56.554 45.846-102.4 102.4-102.4h614.4c56.554 0 102.4 45.846 102.4 102.4v520.806c0 27.156-10.798 53.198-30.003 72.397zM514.745 360.75l-78.225 131.028c-2.785 4.606-7.721 7.422-13.038 7.422h-48.606c-2.911 0-5.696-0.768-8.101-2.431-7.088-4.479-9.24-13.947-4.683-21.241l104.173-166.856-105.566-169.927c-2.921-4.746-3.070-10.719-0.389-15.608s7.77-7.926 13.3-7.937h43.669c5.316 0 10.126 2.815 12.911 7.294l79.364 129.877 78.858-129.749c2.785-4.606 7.721-7.294 12.911-7.294h47.467c2.911 0 5.696 0.896 8.228 2.431 7.088 4.606 9.114 14.075 4.557 21.241l-106.325 166.856 107.971 169.543c2.977 4.732 3.174 10.726 0.516 15.649s-7.753 7.996-13.3 8.024h-45.188c-5.316 0-10.253-2.815-13.038-7.422l-77.466-130.9z" />
<glyph unicode="&#xe904;" glyph-name="pdf" d="M520.806 960c2.458 0 4.813-0.563 7.219-0.717 10.962-0.607 21.753-2.993 31.949-7.066 3.84-1.638 7.424-3.891 11.059-5.939 2.15-1.178 4.506-2.099 6.554-3.482 3.944-2.812 7.69-5.892 11.213-9.216 1.382-1.229 3.021-2.253 4.352-3.584v0l298.445-298.394c19.205-19.199 30.003-45.241 30.003-72.397v0-520.806c0-56.554-45.846-102.4-102.4-102.4v0h-614.4c-56.554 0-102.4 45.846-102.4 102.4v0 819.2c0 56.554 45.846 102.4 102.4 102.4v0zM512 883.2h-307.2c-14.138 0-25.6-11.462-25.6-25.6v0-819.2c0-14.138 11.462-25.6 25.6-25.6v0h614.4c14.138 0 25.6 11.462 25.6 25.6v0 512h-230.4c-56.554 0-102.4 45.846-102.4 102.4v0 230.4zM489.015 505.043l3.534-0.014c15.105-0.686 32.804-10.171 37.087-34.514 6.425-30.857-1.804-64.914-8.342-92.229v0l-0.338-1.6c13.189-34.743 31.338-58.057 59.069-75.2 56.364 7.086 92.549 3.2 107.429-11.657 10.258-10.4 13.302-29.829 6.989-45.257-3.607-8.8-13.189-23.429-37.538-23.429-24.575 0-60.76 11.086-92.549 28.343-28.745-4.914-60.535-15.886-91.196-26.4-6.538-2.286-13.302-4.571-19.84-6.743-42.836-74.514-74.964-90.743-94.804-90.743-4.735 0-8.793 1.029-12.175 2.286-7.778 2.971-14.429 9.143-18.6 17.143-3.72 7.2-5.298 15.2-3.945 21.486 6.651 34.057 51.404 61.029 84.771 78.514 17.924 32 42.385 85.829 57.716 122.857-12.175 47.771-18.825 85.257-11.385 112.686 3.945 14.971 19.84 25.257 37.651 24.457zM397.295 203.086c-11.611-10.743-26.378-25.6-33.931-39.657 6.425 5.029 18.262 16.571 33.931 39.657zM494.24 334.514c-8.68-22.857-21.193-54.057-36.185-81.6 4.509 1.829 9.131 3.771 13.865 5.714 19.84 8.229 42.047 17.486 66.396 23.086-16.796 13.486-32.015 31.657-44.076 52.8zM669.644 259.657c-0.113 0.114-5.073 10.629-50.84 8.457 32.872-13.123 44.897-11.662 48.594-10.434l0.905 0.363c0.219 0.107 0.361 0.194 0.439 0.243v0l0.225 0.343c0.902 0.457 0.789 0.8 0.676 1.029zM493.564 474.514c-3.269-3.771-2.48-36 3.044-58.743 4.509 15.543 5.298 46.286-0.564 56.457-0.789 1.486-1.578 2.171-2.48 2.286zM588.8 825.805v-173.005c0-14.138 11.462-25.6 25.6-25.6v0h172.954l-198.554 198.605z" />
<glyph unicode="&#xe905;" glyph-name="drag" d="M456.862 64c0-70.4-56.714-128-126.031-128s-126.031 57.6-126.031 128c0 70.4 56.714 128 126.031 128s126.031-57.6 126.031-128zM330.831 576c-69.317 0-126.031-57.6-126.031-128s56.714-128 126.031-128c69.317 0 126.031 57.6 126.031 128s-56.714 128-126.031 128zM330.831 960c-69.317 0-126.031-57.6-126.031-128s56.714-128 126.031-128c69.317 0 126.031 57.6 126.031 128s-56.714 128-126.031 128zM708.923 704c69.317 0 126.031 57.6 126.031 128s-56.714 128-126.031 128c-69.317 0-126.031-57.6-126.031-128s56.714-128 126.031-128zM708.923 576c-69.317 0-126.031-57.6-126.031-128s56.714-128 126.031-128c69.317 0 126.031 57.6 126.031 128s-56.714 128-126.031 128zM708.923 192c-69.317 0-126.031-57.6-126.031-128s56.714-128 126.031-128c69.317 0 126.031 57.6 126.031 128s-56.714 128-126.031 128z" />
<glyph unicode="&#xe906;" glyph-name="info" d="M512 533.333c23.564 0 42.667-19.103 42.667-42.667v-256c0-23.564-19.103-42.667-42.667-42.667s-42.667 19.103-42.667 42.667v256c0 23.564 19.103 42.667 42.667 42.667zM512 597.333c22.865 0 43.993 12.198 55.426 32s11.432 44.198 0 64c-11.432 19.802-32.561 32-55.426 32-35.299 0-63.915-28.616-63.915-63.915s28.616-63.915 63.915-63.915v-0.171zM0 448c0 182.92 97.587 351.945 256 443.405s353.587 91.46 512 0c158.413-91.46 256-260.485 256-443.405 0-282.77-229.23-512-512-512s-512 229.23-512 512zM512 874.667c-235.641 0-426.667-191.025-426.667-426.667s191.025-426.667 426.667-426.667c235.641 0 426.667 191.025 426.667 426.667s-191.025 426.667-426.667 426.667v0z" />
<glyph unicode="&#xe907;" glyph-name="hide" d="M11.251 948.77c-13.44-13.437-15.030-34.685-3.738-49.972l3.738-4.301 206.543-206.595c-100.71-70.587-172.603-175.109-202.498-294.404-4.796-20.434 7.703-40.933 28.065-46.027s41.041 7.105 46.432 27.39c26.568 105.883 92.002 197.893 183.298 257.744l92.673-92.673c-76.996-80.457-75.593-207.692 3.159-286.431s205.988-80.12 286.431-3.109l303.056-303.108c14.214-14.253 37.023-15.111 52.268-1.965s17.751 35.833 5.743 51.989l-3.738 4.301-947.157 947.161c-14.992 14.974-39.28 14.974-54.272 0zM420.035 485.66l180.994-181.046c-50.225-48.509-130.060-47.815-179.434 1.559s-50.068 129.21-1.559 179.435v0.051zM511.991 780.831c-51.2 0-100.865-7.578-147.918-21.76l63.335-63.284c227.512 45.049 450.397-96.172 506.833-321.131 5.517-20.119 26.087-32.153 46.329-27.103s32.748 25.336 28.168 45.689c-57.126 227.813-261.882 387.575-496.747 387.589v0zM521.975 601.117l194.613-194.563c-5.216 105.237-89.375 189.375-194.613 194.563v0z" />
<glyph unicode="&#xe908;" glyph-name="show" d="M512.046 568.023c116.311 0 210.6-95.637 210.6-213.611s-94.289-213.611-210.6-213.611c-116.311 0-210.6 95.637-210.6 213.611s94.289 213.611 210.6 213.611v0zM512.046 487.919c-72.695 0-131.625-59.773-131.625-133.507s58.931-133.507 131.625-133.507c72.695 0 131.625 59.773 131.625 133.507s-58.931 133.507-131.625 133.507v0zM512.046 755.2c242.875 0 452.58-168.219 510.758-403.939 5.307-21.457-7.54-43.214-28.694-48.597s-42.605 7.648-47.912 29.105c-50.153 201.782-229.099 343.173-434.261 343.122s-384.040-141.529-434.096-343.336c-5.278-21.471-26.717-34.538-47.885-29.185s-34.051 27.099-28.773 48.57c58.748 237.631 269.329 404.269 510.863 404.26z" />
<glyph unicode="&#xe909;" glyph-name="support" d="M512 960c282.777 0 512-229.211 512-511.973s-229.222-511.973-512-511.973c-81.716-0.113-162.262 19.413-234.854 56.931l-195.891-54.628c-22.252-6.21-46.123 0.054-62.458 16.389s-22.6 40.205-16.39 62.455l54.682 195.727c-37.614 72.652-57.194 153.288-57.088 235.098 0 282.763 229.223 511.973 512 511.973zM512 883.204c-240.354 0-435.2-194.836-435.2-435.177 0-75.26 19.098-147.602 54.938-211.803l7.68-13.823-56.934-203.97 204.134 56.931 13.824-7.68c159.144-88.476 356.549-68.528 494.774 49.998s188.043 310.57 124.866 481.338c-63.177 170.767-225.994 284.152-408.081 284.187zM512 268.836c28.277 0 51.2-22.922 51.2-51.197s-22.923-51.197-51.2-51.197c-28.277 0-51.2 22.922-51.2 51.197s22.923 51.197 51.2 51.197zM512.001 716.813c77.762 0 140.8-63.035 140.8-140.793 0-51.709-15.207-80.585-53.811-120.775l-8.653-8.755c-31.846-31.845-39.936-45.361-39.936-75.26 0-21.207-17.192-38.398-38.4-38.398s-38.4 17.191-38.4 38.398c0 51.709 15.206 80.585 53.811 120.775l8.653 8.755c31.846 31.845 39.936 45.361 39.936 75.26-0.11 33.989-26.772 61.963-60.718 63.706s-63.333-23.353-66.924-57.152l-0.358-6.553c0-21.207-17.192-38.398-38.4-38.398s-38.4 17.191-38.4 38.398c0 77.758 63.038 140.793 140.8 140.793z" />
<glyph unicode="&#xe90a;" glyph-name="calculator" d="M256 704c0 56.554 45.846 102.4 102.4 102.4h307.2c56.554 0 102.4-45.846 102.4-102.4v-51.2c0-56.554-45.846-102.4-102.4-102.4h-307.2c-56.554 0-102.4 45.846-102.4 102.4v51.2zM358.4 729.6c-14.138 0-25.6-11.462-25.6-25.6v-51.2c0-14.138 11.462-25.6 25.6-25.6h307.2c14.138 0 25.6 11.462 25.6 25.6v51.2c0 14.138-11.462 25.6-25.6 25.6h-307.2zM320 320c35.346 0 64 28.654 64 64s-28.654 64-64 64c-35.346 0-64-28.654-64-64s28.654-64 64-64v0zM384 179.2c0-35.346-28.654-64-64-64s-64 28.654-64 64c0 35.346 28.654 64 64 64s64-28.654 64-64v0zM704 320c35.346 0 64 28.654 64 64s-28.654 64-64 64c-35.346 0-64-28.654-64-64s28.654-64 64-64v0zM768 179.2c0-35.346-28.654-64-64-64s-64 28.654-64 64c0 35.346 28.654 64 64 64s64-28.654 64-64zM512 320c35.346 0 64 28.654 64 64s-28.654 64-64 64c-35.346 0-64-28.654-64-64s28.654-64 64-64v0zM576 179.2c0-35.346-28.654-64-64-64s-64 28.654-64 64c0 35.346 28.654 64 64 64s64-28.654 64-64v0zM268.8 960c-91.9 0-166.4-74.5-166.4-166.4v-691.2c0-44.132 17.531-86.457 48.737-117.663s73.531-48.737 117.663-48.737h486.4c44.132 0 86.457 17.531 117.663 48.737s48.737 73.531 48.737 117.663v691.2c0 91.9-74.5 166.4-166.4 166.4h-486.4zM179.2 793.6c0 49.459 40.141 89.6 89.6 89.6h486.4c49.459 0 89.6-40.141 89.6-89.6v-691.2c0-49.485-40.115-89.6-89.6-89.6h-486.4c-49.485 0-89.6 40.115-89.6 89.6v691.2z" />
<glyph unicode="&#xe90b;" glyph-name="close" d="M587.355 447.305l317.115 317.117c5.288 4.926 9.533 10.867 12.474 17.468 2.934 6.601 4.52 13.726 4.647 20.951s-1.199 14.402-3.91 21.102c-2.703 6.7-6.732 12.787-11.841 17.897s-11.201 9.138-17.896 11.844c-6.703 2.706-13.882 4.036-21.106 3.908s-14.351-1.709-20.949-4.65c-6.598-2.941-12.541-7.181-17.471-12.468l-317.114-317.117-317.117 317.117c-10.201 9.505-23.692 14.679-37.633 14.434s-27.241-5.893-37.1-15.752c-9.859-9.859-15.506-23.16-15.752-37.1s4.929-27.432 14.434-37.633l317.117-317.117-317.117-317.117c-10.077-10.091-15.737-23.764-15.737-38.026s5.66-27.935 15.737-38.026c10.090-10.076 23.766-15.736 38.025-15.736s27.936 5.66 38.026 15.736l317.117 317.118 317.114-317.118c10.091-10.076 23.772-15.736 38.026-15.736 14.262 0 27.942 5.66 38.026 15.736 10.076 10.091 15.736 23.764 15.736 38.026s-5.66 27.935-15.736 38.026l-317.115 317.117z" />
<glyph unicode="&#xe90c;" glyph-name="folder" d="M317.798 857.6c23.552 0 46.49-7.219 65.741-20.582l7.987-6.144 121.6-101.274h395.674c57.465 0.019 106.156-42.315 114.125-99.226l0.819-8.090 0.256-7.885v-460.8c0-60.568-46.889-110.798-107.315-114.944l-7.885-0.256h-793.6c-60.568 0-110.798 46.889-114.944 107.315l-0.256 7.885v588.8c0 60.568 46.889 110.798 107.315 114.944l7.885 0.256h202.598zM391.526 551.475c-18.061-15.029-40.285-24.176-63.693-26.214l-10.035-0.461-240.998 0.051v-371.251c0-19.456 14.438-35.533 33.178-38.042l5.222-0.358h793.6c19.189 0 35.432 14.167 38.042 33.178l0.358 5.222v460.8c0 19.189-14.167 35.432-33.178 38.042l-5.222 0.358h-395.725l-121.549-101.325zM317.798 780.8h-202.598c-19.189 0-35.432-14.167-38.042-33.178l-0.358-5.222v-140.749l240.998-0.051c7.148 0.009 14.153 2.012 20.224 5.786l4.352 3.072 96.819 80.794-96.768 80.64c-5.509 4.598-12.196 7.56-19.302 8.55l-5.325 0.358z" />
<glyph unicode="&#xe90d;" glyph-name="comment" d="M166.4 140.77c-91.9 0-166.4 74.503-166.4 166.406v435.217c0 91.904 74.5 166.406 166.4 166.406h691.2c44.132 0 86.457-17.532 117.663-48.739s48.737-73.533 48.737-117.667v-435.217c0-44.134-17.531-86.46-48.737-117.667s-73.531-48.739-117.663-48.739h-293.786l-256.614-192.007c-19.393-14.515-45.318-16.837-66.982-5.999s-35.352 32.978-35.367 57.201v140.805h-38.451zM538.317 217.573h319.283c49.485 0 89.6 40.117 89.6 89.603v435.217c0 49.487-40.115 89.603-89.6 89.603h-691.2c-49.485 0-89.6-40.117-89.6-89.603v-435.217c0-49.461 40.141-89.603 89.6-89.603h115.149v-192.007l256.768 192.007z" />
<glyph unicode="&#xe90e;" glyph-name="dashboard" d="M850.489 883.2h-676.978c-53.191 0-96.711-43.52-96.711-96.711v-676.978c0-53.191 43.52-96.711 96.711-96.711h676.978c53.191 0 96.711 43.52 96.711 96.711v676.978c0 53.191-43.52 96.711-96.711 96.711zM173.511 109.511v676.978h290.133v-676.978h-290.133zM850.489 109.511h-290.133v338.489h290.133v-338.489zM850.489 544.711h-290.133v241.778h290.133v-241.778z" />
<glyph unicode="&#xe90f;" glyph-name="delete" d="M395.636 533.333v-341.333c0-23.564 19.276-42.667 43.055-42.667s43.055 19.103 43.055 42.667v341.333c0 23.564-19.276 42.667-43.055 42.667s-43.055-19.103-43.055-42.667zM610.909 576c23.778 0 43.055-19.103 43.055-42.667v-341.333c0-23.564-19.276-42.667-43.055-42.667s-43.055 19.103-43.055 42.667v341.333c0 23.564 19.276 42.667 43.055 42.667zM697.018 789.333h258.327c23.778 0 43.055-19.103 43.055-42.667s-19.276-42.667-43.055-42.667h-47.618l-64.754-578.219c-12.111-108.051-104.277-189.794-213.981-189.781h-208.384c-109.704-0.012-201.87 81.73-213.981 189.781l-64.84 578.219h-47.532c-23.778 0-43.055 19.103-43.055 42.667s19.276 42.667 43.055 42.667h258.327c0 94.257 77.105 170.667 172.218 170.667s172.218-76.41 172.218-170.667zM524.8 874.667c-47.557 0-86.109-38.205-86.109-85.333h172.218c0 47.128-38.552 85.333-86.109 85.333zM228.499 704l63.721-568.832c7.283-64.817 62.578-113.844 128.389-113.835h208.384c65.778 0.034 121.023 49.050 128.303 113.835l63.893 568.832h-592.689z" />
<glyph unicode="&#xe910;" glyph-name="add" d="M573.217 757.983c0 26.74-21.677 48.417-48.417 48.417s-48.417-21.677-48.417-48.417v-274.365h-274.365c-26.74 0-48.417-21.677-48.417-48.417s21.677-48.417 48.417-48.417h274.365v-274.365c0-26.74 21.677-48.417 48.417-48.417s48.417 21.677 48.417 48.417v274.365h274.365c26.74 0 48.417 21.677 48.417 48.417s-21.677 48.417-48.417 48.417h-274.365v274.365z" />
<glyph unicode="&#xe911;" glyph-name="check" d="M1006.973 812.549c23.708-24.874 22.511-64.012-2.673-87.428l-662.44-616.451c-28.086-26.115-72.153-25.31-99.241 1.815l-223.876 224.344c-16.135 15.653-22.472 38.678-16.578 60.241s23.102 38.315 45.022 43.828c21.92 5.513 45.149-1.068 60.773-17.219l186.619-186.981 623.846 580.49c25.192 23.408 64.832 22.226 88.548-2.639v0z" />
<glyph unicode="&#xe912;" glyph-name="arrow-down" d="M916.699 364.284l-3.146-3.341-371.2-366.277c-22.838-22.535-58.916-23.56-82.957-3.073l-3.35 3.073-371.2 366.277c-24.153 23.833-24.413 62.734-0.58 86.887 22.75 23.056 59.229 24.34 83.505 3.681l3.382-3.101 266.606-263.015v646.605c0 33.932 27.508 61.44 61.44 61.44 32.519 0 59.137-25.263 61.298-57.233l0.142-4.207v-646.656l266.606 263.067c23.056 22.75 59.548 23.547 83.547 2.566l3.341-3.146c22.75-23.056 23.547-59.548 2.566-83.547z" />
<glyph unicode="&#xe913;" glyph-name="arrow-up" d="M81.701 506.116l3.146 3.341 371.2 366.277c22.838 22.535 58.916 23.56 82.957 3.073l3.35-3.073 371.2-366.277c24.153-23.833 24.413-62.734 0.58-86.887-22.75-23.056-59.229-24.34-83.505-3.681l-3.382 3.101-266.606 263.015v-646.605c0-33.932-27.508-61.44-61.44-61.44-32.519 0-59.137 25.263-61.298 57.233l-0.142 4.207v646.656l-266.606-263.067c-23.056-22.75-59.548-23.547-83.547-2.566l-3.341 3.146c-22.75 23.056-23.547 59.548-2.566 83.547z" />
<glyph unicode="&#xe914;" glyph-name="arrow-left" d="M428.284 852.699l-3.341-3.146-366.277-371.2c-22.535-22.838-23.56-58.916-3.073-82.957l3.073-3.35 366.277-371.2c23.833-24.153 62.734-24.413 86.887-0.58 23.056 22.75 24.34 59.229 3.681 83.505l-3.101 3.382-263.015 266.606h646.605c33.932 0 61.44 27.508 61.44 61.44 0 32.519-25.263 59.137-57.233 61.298l-4.207 0.142h-646.656l263.067 266.606c22.75 23.056 23.547 59.548 2.566 83.547l-3.146 3.341c-23.056 22.75-59.548 23.547-83.547 2.566z" />
<glyph unicode="&#xe915;" glyph-name="arrow-right" d="M570.116 852.699l3.341-3.146 366.277-371.2c22.535-22.838 23.56-58.916 3.073-82.957l-3.073-3.35-366.277-371.2c-23.833-24.153-62.734-24.413-86.887-0.58-23.056 22.75-24.34 59.229-3.681 83.505l3.101 3.382 263.015 266.606h-646.605c-33.932 0-61.44 27.508-61.44 61.44 0 32.519 25.263 59.137 57.233 61.298l4.207 0.142h646.656l-263.067 266.606c-22.75 23.056-23.547 59.548-2.566 83.547l3.146 3.341c23.056 22.75 59.548 23.547 83.547 2.566z" />
<glyph unicode="&#xe916;" glyph-name="chevron-right" d="M261.413-8.748c-23.288 22.476-23.288 58.909 0 81.385l375.397 362.203-375.397 362.203c-15.507 14.451-21.726 35.851-16.267 55.974s21.747 35.839 42.604 41.106c20.856 5.267 43.036-0.733 58.013-15.695l417.572-402.895c23.288-22.476 23.288-58.909 0-81.385l-417.572-402.895c-23.295-22.469-61.055-22.469-84.35 0z" />
<glyph unicode="&#xe917;" glyph-name="chevron-left" d="M762.587-8.748c23.288 22.476 23.288 58.909 0 81.385l-375.397 362.203 375.397 362.203c15.507 14.451 21.726 35.851 16.267 55.974s-21.747 35.839-42.604 41.106c-20.856 5.267-43.036-0.733-58.013-15.695l-417.572-402.895c-23.288-22.476-23.288-58.909 0-81.385l417.572-402.895c23.295-22.469 61.055-22.469 84.35 0z" />
<glyph unicode="&#xe918;" glyph-name="chevron-up" d="M68.052 210.213c22.476-23.288 58.909-23.288 81.385 0l362.203 375.397 362.203-375.397c14.451-15.507 35.851-21.726 55.974-16.267s35.839 21.747 41.106 42.604c5.267 20.856-0.733 43.036-15.695 58.013l-402.895 417.572c-22.476 23.288-58.909 23.288-81.385 0l-402.895-417.572c-22.469-23.295-22.469-61.055 0-84.35z" />
<glyph unicode="&#xe919;" glyph-name="chevron-down" d="M68.052 711.387c22.476 23.288 58.909 23.288 81.385 0l362.203-375.397 362.203 375.397c14.451 15.507 35.851 21.726 55.974 16.267s35.839-21.747 41.106-42.604c5.267-20.856-0.733-43.036-15.695-58.013l-402.895-417.572c-22.476-23.288-58.909-23.288-81.385 0l-402.895 417.572c-22.469 23.295-22.469 61.055 0 84.35z" />
<glyph unicode="&#xe91a;" glyph-name="history" d="M487.573 907.327c195.747 15.432 380.715-91.524 464.984-268.874s50.359-388.305-85.244-530.312c-135.604-142.007-344.773-185.611-525.823-109.612s-296.425 255.834-290.037 452.082c0.736 24.521 21.21 43.803 45.731 43.067s43.803-21.21 43.067-45.731c-6.194-187.353 123.523-351.906 307.145-389.632s367.71 62.356 435.885 236.975c68.175 174.619 0.597 372.955-160.012 469.622s-367.508 63.534-489.897-78.455l-12.077-14.681h140.835l6.038-0.474c21.975-3.024 38.347-21.802 38.347-43.984s-16.372-40.961-38.347-43.984l-6.038-0.414h-236.797l-6.038 0.414c-19.727 2.709-35.238 18.22-37.947 37.946l-0.414 6.038v236.794l0.414 6.038c2.709 19.727 18.22 35.237 37.947 37.946l6.038 0.414 6.038-0.414c19.727-2.709 35.238-18.22 37.947-37.946l0.414-6.038-0.059-115.615c81.254 92.294 195.303 149.254 317.9 158.77v0.059zM509.95 671.776l6.038-0.414c19.727-2.709 35.238-18.22 37.947-37.946l0.414-6.038v-192.099l103.599-0.059 6.038-0.414c22.074-2.925 38.567-21.748 38.567-44.014s-16.493-41.089-38.567-44.014l-6.038-0.355h-147.998l-6.038 0.355c-19.746 2.715-35.262 18.256-37.947 38.005l-0.414 6.038v236.557l0.414 6.038c2.709 19.727 18.22 35.237 37.947 37.946l6.038 0.414z" />
<glyph unicode="&#xe91b;" glyph-name="edit" d="M974.204 910.202c31.884-31.883 49.796-75.128 49.796-120.219s-17.912-88.335-49.796-120.219l-627.908-627.891c-27.236-27.235-61.362-46.554-98.729-55.891l-194.739-48.708c-14.488-3.629-29.818 0.614-40.379 11.175s-14.804 25.892-11.175 40.381l48.706 194.747c9.338 37.368 28.656 71.496 55.889 98.734l627.908 627.891c31.882 31.885 75.124 49.798 120.214 49.798s88.332-17.913 120.214-49.798zM673.68 729.863l-507.673-507.651c-16.341-16.345-27.932-36.825-33.533-59.249l-31.493-126.020 126.015 31.494c22.427 5.616 42.905 17.222 59.246 33.577l507.588 507.609-120.15 120.24zM793.83 850.146l-60.096-60.141 120.192-120.197 60.181 60.056c33.214 33.215 33.214 87.067 0 120.282s-87.064 33.215-120.277 0z" />
<glyph unicode="&#xe91c;" glyph-name="settings" d="M512.572 960c38.136-0.42 76.115-4.884 113.316-13.286 16.247-3.666 28.396-17.359 30.238-34.082l8.832-80.19c2.524-22.941 15.679-43.307 35.444-54.87s43.789-12.95 64.727-3.736l72.738 32.296c15.147 6.743 32.855 3.079 44.162-9.138 52.575-56.774 91.727-124.86 114.511-199.135 4.896-15.998-0.751-33.377-14.080-43.325l-64.529-48.103c-18.418-13.659-29.295-35.372-29.284-58.462s10.906-44.793 29.336-58.435l64.581-48.051c13.351-9.955 19.001-27.363 14.080-43.377-22.777-74.267-61.91-142.351-114.459-199.135-11.286-12.211-28.967-15.895-44.11-9.19l-73.050 32.402c-20.912 9.287-44.951 7.947-64.726-3.608s-32.92-31.942-35.393-54.893l-8.781-80.137c-1.814-16.532-13.708-30.131-29.719-33.977-75.239-18.089-153.626-18.089-228.865 0-16.011 3.846-27.905 17.445-29.719 33.977l-8.832 80.032c-2.592 22.849-15.745 43.104-35.454 54.597s-43.642 12.863-64.509 3.694l-73.102-32.349c-15.143-6.705-32.825-3.021-44.11 9.19-52.576 56.845-91.71 125.004-114.459 199.345-4.921 16.014 0.729 33.422 14.080 43.377l64.633 48.103c18.424 13.651 29.31 35.359 29.31 58.449s-10.886 44.798-29.31 58.449l-64.581 47.998c-13.37 9.941-19.042 27.352-14.132 43.377 22.799 74.28 61.969 142.367 114.563 199.135 11.298 12.193 28.978 15.855 44.11 9.138l72.738-32.296c20.969-9.187 45.006-7.777 64.782 3.802s32.945 31.953 35.492 54.909l8.832 80.137c1.828 16.758 14.006 30.482 30.29 34.134 37.304 8.35 75.336 12.761 114.407 13.234v0zM512.572 881.228c-23.585-0.277-47.117-2.331-70.4-6.144l-5.663-51.307c-5.26-47.879-32.727-90.378-73.99-114.486s-91.408-26.952-135.080-7.663l-46.656 20.691c-29.719-36.452-53.374-77.547-70.036-121.676l41.461-30.826c38.378-28.508 61.043-73.774 61.043-121.913s-22.665-93.405-61.043-121.913l-41.461-30.879c16.626-44.217 40.266-85.389 69.984-121.939l47.072 20.848c43.567 19.226 93.578 16.4 134.753-7.616s68.621-66.367 73.953-114.113l5.611-51.674c46.241-7.877 93.469-7.877 139.709 0l5.611 51.674c5.213 47.849 32.651 90.332 73.892 114.41s91.359 26.873 134.971 7.529l46.968-20.796c29.701 36.474 53.338 77.587 69.984 121.729l-41.461 30.879c-38.398 28.494-61.078 73.765-61.078 121.913s22.681 93.418 61.078 121.913l41.357 30.826c-16.663 44.129-40.317 85.225-70.036 121.676l-46.552-20.638c-43.649-19.314-93.784-16.494-135.043 7.597s-68.722 66.58-73.975 114.447l-5.715 51.254c-22.903 3.784-46.052 5.838-69.257 6.144v0.053zM511.896 644.912c107.604 0 194.834-88.168 194.834-196.93s-87.23-196.93-194.834-196.93c-107.604 0-194.834 88.168-194.834 196.93s87.23 196.93 194.834 196.93zM511.896 566.141c-64.562 0-116.901-52.901-116.901-118.158s52.338-118.158 116.901-118.158c64.562 0 116.901 52.901 116.901 118.158s-52.338 118.158-116.901 118.158z" />
<glyph unicode="&#xe91d;" glyph-name="search" d="M1008.305 38.785l-232.136 232.136c55.888 74.401 86.058 164.963 85.956 258.016 0 237.687-193.376 431.063-431.063 431.063s-431.063-193.376-431.063-431.063c0-237.687 193.376-431.063 431.063-431.063 93.054-0.102 183.615 30.068 258.016 85.956l232.136-232.136c24.397-21.809 61.58-20.769 84.72 2.371s24.18 60.322 2.371 84.72zM123.161 528.937c0 170.050 137.852 307.902 307.902 307.902s307.902-137.852 307.902-307.902c0-170.050-137.852-307.902-307.902-307.902-169.965 0.204-307.698 137.937-307.902 307.902v0z" />
<glyph unicode="&#xe91e;" glyph-name="user" d="M614.4 345.6c137.664 0 249.949-108.662 255.763-244.895l0.237-11.105v-102.4c0-28.277-22.923-51.2-51.2-51.2-26.257 0-47.898 19.765-50.856 45.229l-0.344 5.971v102.4c0 81.801-63.945 148.667-144.575 153.339l-9.025 0.261h-204.8c-81.801 0-148.667-63.945-153.339-144.575l-0.261-9.025v-102.4c0-28.277-22.923-51.2-51.2-51.2-26.257 0-47.898 19.765-50.856 45.229l-0.344 5.971v102.4c0 137.664 108.662 249.949 244.895 255.763l11.105 0.237h204.8zM512 960c141.385 0 256-114.615 256-256s-114.615-256-256-256c-141.385 0-256 114.615-256 256s114.615 256 256 256zM512 857.6c-84.831 0-153.6-68.769-153.6-153.6s68.769-153.6 153.6-153.6c84.831 0 153.6 68.769 153.6 153.6s-68.769 153.6-153.6 153.6z" />
<glyph unicode="&#xe91f;" glyph-name="danger" d="M431.457 861.851c16.409 29.012 47.161 46.949 80.492 46.949s64.083-17.937 80.492-46.949l419.049-734.149c35.638-62.468-9.114-140.501-80.594-140.501h-837.792c-71.48 0-116.232 78.033-80.594 140.501l418.947 734.149zM460.745 550.434v-102.406c0-28.279 22.925-51.203 51.204-51.203s51.204 22.924 51.204 51.203v102.406c0 28.279-22.925 51.203-51.204 51.203s-51.204-22.924-51.204-51.203zM511.949 320.020c-42.418 0-76.805-34.387-76.805-76.805s34.387-76.805 76.805-76.805c42.418 0 76.805 34.387 76.805 76.805s-34.387 76.805-76.805 76.805z" />
<glyph unicode="&#xe920;" glyph-name="logout" d="M512 851.2c74.316 0 149.912-57.164 153.469-129.11l0.131-5.29v-89.6c0-24.742-20.058-44.8-44.8-44.8-23.505 0-42.783 18.102-44.651 41.126l-0.149 3.674v89.6c0 18.359-30.257 42.586-59.956 44.657l-4.044 0.143h-344.533c-24.177 0-43.812-18.21-45.715-41.142l-0.151-3.658v-537.6c0-23.392 18.427-42.771 42.089-44.651l3.778-0.149h362.667c24.177 0 43.812 18.21 45.715 41.142l0.151 3.658v89.6c0 24.742 20.058 44.8 44.8 44.8 23.505 0 42.783-18.102 44.651-41.126l0.149-3.674v-89.6c0-72.488-57.768-131.388-129.891-134.288l-5.576-0.112h-362.667c-72.831 0-132.42 57.088-135.353 128.852l-0.113 5.548v537.6c0 72.488 57.768 131.388 129.891 134.288l5.576 0.112h344.533zM794.144 661.952l3.213-2.887 181.333-179.2c16.76-16.563 17.691-43.044 2.793-60.709l-2.793-3.022-181.333-179.2c-17.599-17.392-45.964-17.224-63.356 0.375-16.369 16.563-17.183 42.664-2.55 60.177l2.925 3.179 103.563 102.381-507.273-0.006c-24.742 0-44.8 20.058-44.8 44.8 0 23.505 18.102 42.783 41.126 44.651l3.674 0.149 507.657 0.006-103.947 102.688c-16.563 16.369-17.686 42.458-3.262 60.143l2.887 3.213c16.369 16.563 42.458 17.686 60.143 3.262z" />
<glyph unicode="&#xe921;" glyph-name="warning" d="M768 891.405c158.413-91.46 256-260.485 256-443.405 0-282.77-229.23-512-512-512s-512 229.23-512 512c0 182.92 97.587 351.945 256 443.405s353.587 91.46 512 0zM512 874.667c-235.641 0-426.667-191.025-426.667-426.667s191.025-426.667 426.667-426.667c235.641 0 426.667 191.025 426.667 426.667s-191.025 426.667-426.667 426.667zM512 320l4.547-0.161c21.092-1.499 40.208-13.357 50.878-31.839 11.432-19.802 11.432-44.198 0-64s-32.561-32-55.426-32c-35.299 0-63.915 28.616-63.915 63.915s28.616 63.915 63.915 64.085v0zM512 725.333c23.564 0 42.667-19.103 42.667-42.667v0-256c0-23.564-19.103-42.667-42.667-42.667s-42.667 19.103-42.667 42.667v0 256c0 23.564 19.103 42.667 42.667 42.667z" />
<glyph unicode="&#xe922;" glyph-name="print" d="M833.477 727.631c62.808 0 113.723-50.916 113.723-113.723v0-324.923c0-62.808-50.916-113.723-113.723-113.723v0h-16.246v-80.581c0-45.221-36.659-81.881-81.881-81.881v0h-421.1c-45.221 0-81.881 36.659-81.881 81.881v0 80.581h-16.246c-62.808 0-113.723 50.916-113.723 113.723v0 320.862c0 65.051 52.734 117.785 117.785 117.785v0zM735.35 435.2h-421.1c-9.318-0.033-16.863-7.578-16.896-16.896v0-323.623c0.033-9.318 7.578-16.863 16.896-16.896v0h421.1c9.318 0.033 16.863 7.578 16.896 16.896v0 323.623c-0.033 9.318-7.578 16.863-16.896 16.896v0zM821.583 625.666c-18.543 8.567-40.461 4.663-54.905-9.781s-18.348-36.362-9.781-54.905c8.567-18.543 27.789-29.777 48.149-28.14 23.836 1.916 42.761 20.841 44.677 44.677 1.637 20.361-9.597 39.582-28.14 48.149zM703.508 857.6c56.498-0.084 104.396-41.57 112.545-97.477v0h-582.506c8.149 55.907 56.047 97.393 112.545 97.477v0z" />
<glyph unicode="&#xe923;" glyph-name="download" d="M896 319.915c26.992 0 49.105-20.886 51.060-47.379l0.14-3.821 0.011-205.383c-0.002-0.962-0.007-1.93-0.013-2.905-0.152-26.991-20.585-44.72-47.088-46.524l-3.822-0.119h-755.779c-27.975 0.158-50.582 22.722-50.91 50.585v-1.519 205.866c0 28.277 22.923 51.2 51.2 51.2 26.992 0 49.105-20.886 51.060-47.379l0.14-3.821v-152.798l652.8-3.712v156.51c0 28.277 22.923 51.2 51.2 51.2zM519.626 885.248c23.505 0 42.783-18.102 44.651-41.126v0l0.149-3.674 0.019-507.324 102.356 103.614 3.179 2.925c16.418 13.718 40.385 13.86 56.964 0.337v0l3.213-2.887 2.925-3.179c13.718-16.418 13.86-40.385 0.337-56.964v0l-2.887-3.213-179.2-181.333-3.022-2.793c-16.626-14.022-41.061-14.022-57.686 0v0l-3.022 2.793-179.2 181.333-2.887 3.213c-14.425 17.685-13.302 43.774 3.262 60.143s42.664 17.183 60.177 2.55v0l3.179-2.925 102.714-103.921-0.019 507.631 0.149 3.674c1.869 23.024 21.146 41.126 44.651 41.126z" />
<glyph unicode="&#xe924;" glyph-name="link" d="M332.98 666.598c80.094 81.066 209.951 81.066 290.044 0s80.094-212.5 0-293.566v0l-72.255-73.133-48.398 48.985 72.255 74.168c25.728 26.068 40.087 61.469 39.877 98.315 0.712 36.74-13.304 72.207-38.854 98.315-25.585 26.016-60.357 40.642-96.625 40.642s-71.040-14.626-96.625-40.642v0l-272.662-275.972c-25.704-25.896-40.155-61.090-40.155-97.798s14.451-71.902 40.155-97.798c25.585-26.016 60.357-40.642 96.625-40.642s71.040 14.626 96.625 40.642v0l48.398-48.985c-38.796-38.941-91.236-60.767-145.874-60.714-54.161-0.685-106.378 20.405-145.193 58.644-38.609 38.85-60.318 91.679-60.318 146.783s21.709 107.933 60.318 146.783v0zM819.001 832c54.359 0 106.481-21.905 144.852-60.877 79.93-80.619 80.235-211.531 0.682-292.531v0l-272.662-275.972c-38.564-39.082-90.962-60.941-145.533-60.717-54.189-0.315-106.287 21.15-144.852 59.683-38.504 38.837-60.147 91.591-60.147 146.61s21.643 107.774 60.147 146.61v0l48.398 48.985 48.057-48.985-48.057-48.985c-34.46-34.94-47.885-85.833-35.22-133.508s49.499-84.89 96.625-97.625c47.126-12.735 97.384 0.943 131.844 35.883v0l272.662 275.972c34.521 34.94 48.003 85.866 35.367 133.594s-49.469 85.009-96.625 97.798c-47.156 12.789-97.471-0.857-131.992-35.796v0l-48.398 48.985c38.371 38.972 90.493 60.877 144.852 60.877z" />
<glyph unicode="&#xe925;" glyph-name="email" d="M950.857 806.4h-877.714c-40.396 0-73.143-33.238-73.143-74.24v-593.92c0-41.002 32.747-74.24 73.143-74.24h877.714c40.396 0 73.143 33.238 73.143 74.24v593.92c0 41.002-32.747 74.24-73.143 74.24zM870.4 732.16l-358.4-251.674-358.4 251.674h716.8zM73.143 138.24v560.141l418.011-293.619c12.536-8.827 29.155-8.827 41.691 0l418.011 293.619v-560.141h-877.714z" />
<glyph unicode="&#xe926;" glyph-name="lock" d="M583.37 301.714c0-40.396-33.129-73.143-73.995-73.143s-73.995 32.747-73.995 73.143c0 40.396 33.129 73.143 73.995 73.143s73.995-32.747 73.995-73.143zM287.388 667.429v73.143c0 121.187 99.387 219.429 221.986 219.429s221.986-98.242 221.986-219.429v-73.143h55.497c71.516 0 129.492-57.308 129.492-128v-475.429c0-70.692-57.975-128-129.492-128h-554.965c-71.516 0-129.492 57.308-129.492 128v475.429c0 70.692 57.975 128 129.492 128h55.497zM361.384 740.571v-73.143h295.981v73.143c0 80.791-66.258 146.286-147.991 146.286s-147.991-65.494-147.991-146.286zM231.892 594.286c-30.65 0-55.497-24.56-55.497-54.857v-475.429c0-30.297 24.847-54.857 55.497-54.857h554.965c30.65 0 55.497 24.56 55.497 54.857v475.429c0 30.297-24.847 54.857-55.497 54.857h-554.965z" />
<glyph unicode="&#xe927;" glyph-name="data" d="M219.429 652.8c0 20.198 16.374 36.571 36.571 36.571h512c20.198 0 36.571-16.374 36.571-36.571s-16.374-36.571-36.571-36.571h-512c-20.198 0-36.571 16.374-36.571 36.571zM256 473.6c-20.198 0-36.571-16.374-36.571-36.571s16.374-36.571 36.571-36.571h512c20.198 0 36.571 16.374 36.571 36.571s-16.374 36.571-36.571 36.571h-512zM241.6 268.8c-12.245 0-22.171-16.374-22.171-36.571s9.926-36.571 22.171-36.571h310.4c12.245 0 22.171 16.374 22.171 36.571s-9.926 36.571-22.171 36.571h-310.4zM841.143 960c100.989 0 182.857-81.868 182.857-182.857v-658.286c0-100.989-81.868-182.857-182.857-182.857h-658.286c-48.497 0-95.007 19.265-129.3 53.558s-53.558 80.803-53.558 129.3v658.286c0 100.989 81.868 182.857 182.857 182.857h658.286zM841.143 886.857h-658.286c-60.594 0-109.714-49.121-109.714-109.714v-658.286c0-60.594 49.121-109.714 109.714-109.714h658.286c60.594 0 109.714 49.121 109.714 109.714v658.286c0 60.594-49.121 109.714-109.714 109.714z" />
<glyph unicode="&#xe928;" glyph-name="contact" d="M798.886 960c79.374 0 143.719-64.782 143.719-144.696v0-712.348c0-18.442-14.849-33.391-33.166-33.391v0h-739.911c5.495-38.332 38.123-66.781 76.591-66.783v0h663.32c18.317 0 33.166-14.95 33.166-33.391s-14.849-33.391-33.166-33.391v0h-663.32c-79.374 0-143.719 64.782-143.719 144.696v0 734.609c0 79.913 64.345 144.696 143.719 144.696v0zM798.886 893.217h-552.767c-42.718 0-77.387-34.905-77.387-77.913v0-678.957h707.541v678.957c0 43.008-34.625 77.913-77.387 77.913v0zM563.2 448c68.832 0 124.975-54.331 127.882-122.448l0.118-5.552v-51.2c0-14.138-11.462-25.6-25.6-25.6-13.129 0-23.949 9.883-25.428 22.614l-0.172 2.986v51.2c0 40.901-31.972 74.334-72.287 76.67l-4.513 0.13h-102.4c-40.901 0-74.334-31.972-76.67-72.287l-0.13-4.513v-51.2c0-14.138-11.462-25.6-25.6-25.6-13.129 0-23.949 9.883-25.428 22.614l-0.172 2.986v51.2c0 68.832 54.331 124.975 122.448 127.882l5.552 0.118h102.4zM512 755.2c70.692 0 128-57.308 128-128s-57.308-128-128-128c-70.692 0-128 57.308-128 128s57.308 128 128 128zM512 704c-42.415 0-76.8-34.385-76.8-76.8s34.385-76.8 76.8-76.8c42.415 0 76.8 34.385 76.8 76.8s-34.385 76.8-76.8 76.8z" />
<glyph unicode="&#xe929;" glyph-name="people" d="M843.269 385.28c46.165 0 88.081-17.983 118.985-47.248 31.054-29.408 50.987-70.208 52.95-115.766v0l0.155-73.786c0-10.255-4.2-19.542-10.996-26.263-6.78-6.706-16.147-10.857-26.494-10.857-9.554 0-18.272 3.539-24.89 9.361-6.762 5.947-11.33 14.277-12.373 23.653v0l-0.227 70.666c0 25.482-10.044 48.644-26.426 65.828-16.492 17.3-39.406 28.544-64.757 30.002v0l-140.527 0.169c-25.833 0-49.312-9.971-66.712-26.238-17.8 21.226-32.37 37.361-49.655 49.262 28.529 32.5 66.754 49.28 109.065 51.062v0zM775.969 784.64c47.516 0 90.533-19.051 121.671-49.847 31.154-30.811 50.419-73.378 50.419-120.393s-19.265-89.582-50.419-120.393c-31.138-30.796-74.154-49.847-121.671-49.847s-90.533 19.051-121.671 49.847c-31.154 30.811-50.419 73.378-50.419 120.393s19.265 89.582 50.419 120.393c31.138 30.796 74.154 49.847 121.671 49.847zM833.551 692.045c-21.704 15.472-47.796 20.771-72.434 16.844-24.642-3.928-47.835-17.087-63.732-38.556-15.875-21.438-21.467-47.108-17.665-71.285 3.802-24.172 16.994-46.845 38.667-62.294 21.704-15.472 47.796-20.771 72.434-16.844 24.642 3.928 47.835 17.087 63.732 38.556 15.875 21.438 21.467 47.108 17.665 71.285-3.802 24.172-16.994 46.845-38.667 62.294zM411.429 355.84c122.915 0 223.169-97.796 228.36-220.406l0.211-9.994v-92.16c0-25.449-20.467-46.080-45.714-46.080-23.444 0-42.766 17.789-45.407 40.706l-0.308 5.374v92.16c0 73.621-57.093 133.801-129.085 138.005l-8.058 0.235h-182.857c-73.037 0-132.739-57.55-136.91-130.117l-0.233-8.123v-92.16c0-25.449-20.467-46.080-45.714-46.080-23.444 0-42.766 17.789-45.407 40.706l-0.308 5.374v92.16c0 123.898 97.020 224.954 218.656 230.187l9.915 0.213h182.857zM320 908.8c126.237 0 228.571-103.154 228.571-230.4s-102.335-230.4-228.571-230.4c-126.237 0-228.571 103.154-228.571 230.4s102.335 230.4 228.571 230.4zM320 816.64c-75.742 0-137.143-61.892-137.143-138.24s61.401-138.24 137.143-138.24c75.742 0 137.143 61.892 137.143 138.24s-61.401 138.24-137.143 138.24z" />
<glyph unicode="&#xe92a;" glyph-name="upload" d="M896 320c26.992 0 49.105-20.886 51.060-47.379l0.14-3.821 0.011-205.383c-0.002-0.962-0.007-1.93-0.013-2.905-0.152-26.991-20.585-44.72-47.088-46.524l-3.822-0.119h-755.779c-27.975 0.158-50.582 22.722-50.91 50.585v-1.519 205.866c0 28.277 22.923 51.2 51.2 51.2 26.992 0 49.105-20.886 51.060-47.379l0.14-3.821v-152.798l652.8-3.712v156.51c0 28.277 22.923 51.2 51.2 51.2zM548.309 874.817l3.022-2.793 179.2-181.333 2.887-3.213c13.523-16.58 13.381-40.546-0.337-56.964l-2.925-3.179-3.213-2.887c-16.58-13.523-40.546-13.381-56.964 0.337l-3.179 2.925-102.356 103.614-0.019-507.324-0.149-3.674c-1.869-23.024-21.146-41.126-44.651-41.126s-42.783 18.102-44.651 41.126l-0.149 3.674 0.019 507.631-102.714-103.921-3.179-2.925c-17.513-14.633-43.614-13.819-60.177 2.55s-17.686 42.458-3.262 60.143l2.887 3.213 179.2 181.333 3.022 2.793c16.626 14.022 41.061 14.022 57.686 0z" />
<glyph unicode="&#xe92b;" glyph-name="business" d="M550.522 960c54.462 0 98.82-43.056 101.458-97.043l0.124-5.092-0.021-239.394 237.227-0.024c54.462 0 98.82-43.056 101.458-97.043l0.124-5.092v-546.486c0-17.513-13.31-31.918-30.366-33.65l-3.458-0.175h-338.788c-1.381 0-2.744 0.083-4.082 0.244l-0.73-0.088-3.658-0.156h-533.591c-17.513 0-31.918 13.31-33.65 30.366l-0.175 3.458v888.040c0 54.639 42.707 99.351 96.507 102.010l5.075 0.125h406.546zM550.522 892.351h-406.546c-17.58 0-32.127-13.623-33.777-31.155l-0.156-3.331v-854.215l203.839 0.012 0.003 102.785c0 18.681 15.144 33.825 33.825 33.825 17.582 0 32.031-13.415 33.67-30.567l0.155-3.258-0.017-102.785 202.926-0.012 0.012 854.215c0 16.785-11.771 30.692-27.294 33.825l-3.381 0.504-3.258 0.157zM889.31 550.797h-237.152l-0.054-0.331-0.012-546.817h271.151v512.662c0 16.785-11.771 30.692-27.294 33.825l-3.381 0.504-3.258 0.157zM821.552 140.602c18.711 0 33.879-15.292 33.879-34.155s-15.168-34.155-33.879-34.155c-18.711 0-33.879 15.292-33.879 34.155s15.168 34.155 33.879 34.155zM686.037 140.602c18.711 0 33.879-15.292 33.879-34.155s-15.168-34.155-33.879-34.155c-18.711 0-33.879 15.292-33.879 34.155s15.168 34.155 33.879 34.155zM192.837 137.075c13.015-6.464 20.503-20.565 18.621-35.069-1.991-15.35-13.974-27.43-29.199-29.438-14.386-1.897-28.373 5.652-34.785 18.773s-3.824 28.902 6.435 39.245c10.259 10.343 25.912 12.952 38.927 6.488zM531.625 137.075c13.015-6.464 20.503-20.565 18.621-35.069-1.991-15.35-13.974-27.43-29.199-29.438-14.386-1.897-28.373 5.652-34.785 18.773s-3.824 28.902 6.435 39.245c10.259 10.343 25.912 12.952 38.927 6.488zM821.552 311.378c18.711 0 33.879-15.292 33.879-34.155s-15.168-34.155-33.879-34.155c-18.711 0-33.879 15.292-33.879 34.155s15.168 34.155 33.879 34.155zM686.037 311.378c18.711 0 33.879-15.292 33.879-34.155s-15.168-34.155-33.879-34.155c-18.711 0-33.879 15.292-33.879 34.155s15.168 34.155 33.879 34.155zM192.837 307.852c13.015-6.464 20.503-20.565 18.621-35.069-1.991-15.35-13.974-27.43-29.199-29.438-14.386-1.897-28.373 5.652-34.785 18.773s-3.824 28.902 6.435 39.245c10.259 10.343 25.912 12.952 38.927 6.488zM362.231 307.852c13.015-6.464 20.503-20.565 18.621-35.069-1.991-15.35-13.974-27.43-29.199-29.438-14.386-1.897-28.373 5.652-34.785 18.773s-3.824 28.902 6.435 39.245c10.259 10.343 25.912 12.952 38.927 6.488zM531.625 307.852c13.015-6.464 20.503-20.565 18.621-35.069-1.991-15.35-13.974-27.43-29.199-29.438-14.386-1.897-28.373 5.652-34.785 18.773s-3.824 28.902 6.435 39.245c10.259 10.343 25.912 12.952 38.927 6.488zM821.552 482.155c18.711 0 33.879-15.292 33.879-34.155s-15.168-34.155-33.879-34.155c-18.711 0-33.879 15.292-33.879 34.155s15.168 34.155 33.879 34.155zM686.037 482.155c18.711 0 33.879-15.292 33.879-34.155s-15.168-34.155-33.879-34.155c-18.711 0-33.879 15.292-33.879 34.155s15.168 34.155 33.879 34.155zM192.837 478.629c13.015-6.464 20.503-20.565 18.621-35.069-1.991-15.35-13.974-27.43-29.199-29.438-14.386-1.897-28.373 5.652-34.785 18.773s-3.824 28.902 6.435 39.245c10.259 10.343 25.912 12.952 38.927 6.488zM362.231 478.629c13.015-6.464 20.503-20.565 18.621-35.069-1.991-15.35-13.974-27.43-29.199-29.438-14.386-1.897-28.373 5.652-34.785 18.773s-3.824 28.902 6.435 39.245c10.259 10.343 25.912 12.952 38.927 6.488zM531.625 478.629c13.015-6.464 20.503-20.565 18.621-35.069-1.991-15.35-13.974-27.43-29.199-29.438-14.386-1.897-28.373 5.652-34.785 18.773s-3.824 28.902 6.435 39.245c10.259 10.343 25.912 12.952 38.927 6.488zM192.837 649.405c13.015-6.464 20.503-20.565 18.621-35.069-1.991-15.35-13.974-27.43-29.199-29.438-14.386-1.897-28.373 5.652-34.785 18.773s-3.824 28.902 6.435 39.245c10.259 10.343 25.912 12.952 38.927 6.488zM362.231 649.405c13.015-6.464 20.503-20.565 18.621-35.069-1.991-15.35-13.974-27.43-29.199-29.438-14.386-1.897-28.373 5.652-34.785 18.773s-3.824 28.902 6.435 39.245c10.259 10.343 25.912 12.952 38.927 6.488zM540.524 642.871c13.255-13.364 13.309-34.976 0.12-48.273s-34.627-13.243-47.882 0.121c-13.255 13.364-13.309 34.976-0.12 48.273s34.627 13.243 47.882-0.121zM192.837 820.182c13.015-6.464 20.503-20.565 18.621-35.069-1.991-15.35-13.974-27.43-29.199-29.438-14.386-1.897-28.373 5.652-34.785 18.773s-3.824 28.902 6.435 39.245c10.259 10.343 25.912 12.952 38.927 6.488zM362.231 820.182c13.015-6.464 20.503-20.565 18.621-35.069-1.991-15.35-13.974-27.43-29.199-29.438-14.386-1.897-28.373 5.652-34.785 18.773s-3.824 28.902 6.435 39.245c10.259 10.343 25.912 12.952 38.927 6.488zM531.625 820.182c13.015-6.464 20.503-20.565 18.621-35.069-1.991-15.35-13.974-27.43-29.199-29.438-14.386-1.897-28.373 5.652-34.785 18.773s-3.824 28.902 6.435 39.245c10.259 10.343 25.912 12.952 38.927 6.488z" />
<glyph unicode="&#xe92c;" glyph-name="time" d="M514.526 961.314c142.401 0 271.361-57.759 364.721-151.119s151.119-222.32 151.119-364.721c0-142.401-57.759-271.361-151.119-364.721s-222.32-151.119-364.721-151.119c-142.401 0-271.361 57.759-364.721 151.119s-151.119 222.32-151.119 364.721c0 142.401 57.759 271.361 151.119 364.721s222.32 151.119 364.721 151.119zM514.526 878.992c-119.669 0-228.048-48.545-306.51-127.007s-127.007-186.841-127.007-306.51c0-119.669 48.545-228.048 127.007-306.51s186.841-127.007 306.51-127.007c119.669 0 228.048 48.545 306.51 127.007s127.007 186.841 127.007 306.51c0 119.669-48.545 228.048-127.007 306.51s-186.841 127.007-306.51 127.007zM514.526 778.207c10.648 0 20.351-4.043 27.659-10.678 6.494-5.895 11.094-13.837 12.787-22.806l0.544-3.904 0.152-290.606 177.537-0.025c10.648 0 20.351-4.043 27.659-10.678 7.378-6.698 12.312-16.038 13.314-26.524 0.108-12.583-3.751-22.967-10.065-30.634-5.912-7.179-13.993-12.004-23.147-13.755l-3.986-0.561-222.453-0.171c-10.648 0-20.351 4.043-27.659 10.678-6.494 5.895-11.094 13.837-12.787 22.806l-0.544 3.904-0.171 331.792c0 11.366 4.607 21.657 12.056 29.105s17.739 12.056 29.105 12.056z" />
<glyph unicode="&#xe92d;" glyph-name="ellipsis" d="M818.726 554.24c38.125 0 73.351-20.249 92.413-53.113 9.534-16.437 14.301-34.782 14.301-53.127s-4.767-36.689-14.301-53.127c-19.062-32.864-54.288-53.113-92.413-53.113-29.466 0-56.142 11.89-75.452 31.111-19.316 19.227-31.262 45.79-31.262 75.129s11.946 55.902 31.262 75.129c19.31 19.221 45.986 31.111 75.452 31.111zM230.874 554.24c29.466 0 56.142-11.89 75.452-31.111 19.316-19.227 31.262-45.79 31.262-75.129 0-18.98-5.086-37.24-14.301-53.127-9.213-15.884-22.553-29.396-39.063-38.884-33.013-18.972-73.687-18.972-106.701 0-16.51 9.488-29.85 23-39.063 38.884-9.215 15.887-14.301 34.146-14.301 53.127 0 29.339 11.946 55.902 31.262 75.129 19.31 19.221 45.986 31.111 75.452 31.111zM524.8 554.24c29.466 0 56.142-11.89 75.452-31.111 19.316-19.227 31.262-45.79 31.262-75.129 0-18.98-5.086-37.24-14.301-53.127-9.213-15.884-22.553-29.396-39.063-38.884-33.013-18.972-73.687-18.972-106.701 0-16.51 9.488-29.85 23-39.063 38.884-9.215 15.887-14.301 34.146-14.301 53.127 0 29.339 11.946 55.902 31.262 75.129 19.31 19.221 45.986 31.111 75.452 31.111z" />
<glyph unicode="&#xe92e;" glyph-name="refresh" d="M487.27 911.096c98.663 7.808 194.609-15.241 276.51-62.589 81.908-47.352 149.767-119.008 192.245-208.406 42.476-89.394 55.168-187.257 40.153-280.667s-57.737-182.366-126.088-253.945c-68.352-71.579-155.244-118.358-247.863-137.665s-190.965-11.143-282.224 27.165c-91.259 38.307-165.966 102.784-217.053 182.415s-78.555 174.413-75.336 273.323c0.4 13.32 6.161 25.218 15.152 33.685s21.213 13.505 34.533 13.105c13.32-0.4 25.218-6.161 33.685-15.152s13.505-21.212 13.105-34.544c-3.066-92.742 27.506-179.84 81.569-248.422s131.616-118.647 222.51-137.321c90.895-18.674 181.905-3.241 258.628 38.471s139.16 109.701 172.907 196.139c33.747 86.438 33.895 178.746 5.73 261.408s-84.643 155.676-164.146 203.528c-79.503 47.851-170.464 63.576-256.694 49.767s-167.731-57.153-228.257-127.371v0l126.028-8.402c14.739-1.792 26.444-7.588 34.594-15.751 8.695-8.709 13.396-20.138 13.396-32.547 0-12.050-4.447-23.176-11.879-31.7-7.486-8.586-18-14.532-30.048-16.124v0l-243.322-0.415c-13.523 1.598-24.386 6.433-32.329 13.36-8.577 7.48-13.798 17.417-15.27 28.58v0l-0.415 243.318c1.598 13.523 6.433 24.386 13.361 32.329 7.422 8.509 17.262 13.716 28.318 15.234 16.889-1.344 28.97-5.872 37.571-12.397 9.883-7.497 15.305-17.653 16.814-29.091v0l0.327-111.935c81.424 88.661 193.528 143.283 313.786 152.618z" />
<glyph unicode="&#xe92f;" glyph-name="external-link" d="M464 736.64c26.863 0 48.64-21.777 48.64-48.64 0-25.584-19.752-46.554-44.839-48.494l-3.801-0.146h-240c-24.911 0-45.329-19.232-47.218-43.659l-0.142-3.701v-432c0-24.911 19.232-45.329 43.659-47.218l3.701-0.142h432c24.911 0 45.329 19.232 47.218 43.659l0.142 3.701v240c0 26.863 21.777 48.64 48.64 48.64 25.584 0 46.554-19.752 48.494-44.839l0.146-3.801v-240c0-78.025-61.781-141.62-139.092-144.536l-5.548-0.104h-432c-78.025 0-141.62 61.781-144.536 139.092l-0.104 5.548v432c0 78.025 61.781 141.62 139.092 144.536l5.548 0.104h240zM907.717 879.219l0.291-0.077c0.72-0.183 1.437-0.382 2.15-0.598 0.505-0.15 0.997-0.308 1.486-0.474 0.816-0.279 1.639-0.582 2.454-0.908 0.435-0.174 0.867-0.355 1.296-0.541 0.7-0.303 1.384-0.62 2.063-0.953 0.568-0.282 1.139-0.577 1.703-0.883 0.592-0.317 1.173-0.647 1.748-0.991 0.556-0.337 1.113-0.685 1.662-1.043 0.6-0.387 1.189-0.791 1.77-1.208 0.549-0.399 1.092-0.806 1.627-1.225 0.512-0.398 1.022-0.814 1.524-1.242 2.080-1.771 4.007-3.709 5.761-5.796l-2.858 3.116c1.266-1.266 2.448-2.585 3.546-3.949 0.599-0.749 1.182-1.52 1.742-2.308 0.403-0.561 0.785-1.122 1.153-1.69 0.318-0.498 0.639-1.012 0.949-1.532 0.353-0.583 0.683-1.163 1-1.749 0.339-0.632 0.673-1.282 0.993-1.94 0.303-0.621 0.59-1.245 0.862-1.874 0.22-0.508 0.431-1.018 0.634-1.532 0.269-0.686 0.52-1.372 0.756-2.062 0.272-0.786 0.526-1.596 0.759-2.415 0.12-0.437 0.237-0.872 0.348-1.309 0.571-2.229 0.983-4.51 1.23-6.84 0.039-0.389 0.076-0.782 0.109-1.176 0.008-0.078 0.014-0.147 0.019-0.216l0.146-3.801v-240c0-26.863-21.777-48.64-48.64-48.64-25.584 0-46.554 19.752-48.494 44.839l-0.146 3.801v122.598l-396.966-396.992c-18.995-18.995-49.792-18.995-68.787 0-17.94 17.94-18.936 46.407-2.99 65.516l2.99 3.271 396.941 396.966h-122.547c-25.584 0-46.554 19.752-48.494 44.839l-0.146 3.801c0 25.584 19.752 46.554 44.839 48.494l3.801 0.146h240c1.383 0 2.766-0.059 4.145-0.176l3.764-0.464c1.287-0.21 2.557-0.471 3.808-0.781z" />
<glyph unicode="&#xe930;" glyph-name="action" d="M763.267 956.99c14.73-6.088 24.338-20.454 24.341-36.392v-196.924h196.934c15.952 0.029 30.347-9.568 36.455-24.303s2.725-31.701-8.569-42.966l-157.547-157.539c-7.401-7.382-17.433-11.519-27.886-11.5h-220.014l-58.292-58.368c6.314-23.668 1.269-48.925-13.653-68.352s-38.025-30.819-62.521-30.819c-43.505 0-78.774 35.266-78.774 78.77l0.079 3.623c1.094 23.833 12.932 45.885 32.19 59.969s43.862 18.68 66.907 12.499l58.371 58.368v220.004c-0.019 10.453 4.119 20.484 11.501 27.884l157.547 157.539c11.273 11.257 28.217 14.615 42.932 8.507zM810.688 566.134l78.774 78.77h-141.241c-21.753 0-39.387 17.633-39.387 39.385v141.234l-78.774-78.77v-180.619h180.628zM940.822 473.501c27.871-201.125-75.844-397.575-257.645-488.015s-401.055-54.659-544.666 88.889c-143.611 143.548-179.48 362.777-89.106 544.605s286.793 285.614 487.938 257.823l-30.17-30.169c-12.487-12.487-22.016-27.614-27.886-44.269l-6.775 0.079c-159.916-0.024-303.944-96.731-364.489-244.736s-25.587-317.924 88.467-430.011c114.054-112.087 284.563-144.090 431.502-80.99s241.138 208.778 238.388 368.663c16.592 5.868 31.663 15.368 44.113 27.806l30.249 30.326h0.079zM472.514 684.289c-152.269 0-275.707-123.432-275.707-275.694s123.438-275.694 275.707-275.694c152.269 0 275.707 123.432 275.707 275.694h-78.774c0-108.758-88.17-196.924-196.934-196.924s-196.934 88.166-196.934 196.924c0 108.758 88.17 196.924 196.934 196.924v78.77z" />
<glyph unicode="&#xe931;" glyph-name="folder-open" d="M922.986 575.897v38.502c0 30.553-12.153 59.854-33.785 81.459s-50.971 33.741-81.563 33.741h-293.496l-122.012 101.376c-20.748 17.232-46.889 26.653-73.874 26.624h-202.704c-63.705 0-115.348-51.577-115.348-115.2l-0.205-588.8c0-30.553 12.153-59.855 33.785-81.459s50.971-33.741 81.563-33.741h729.202c41.164-0.009 77.052 27.96 87.049 67.84l89.715 358.298c6.711 26.773 0.694 55.142-16.312 76.897s-43.102 34.469-70.737 34.463h-11.278zM115.553 780.8h202.807c8.987 0.010 17.694-3.124 24.607-8.858l132.675-110.285c6.914-5.734 15.621-8.868 24.607-8.858h307.389c21.235 0 38.449-17.192 38.449-38.4v-38.502h-619.083c-52.928 0.006-99.069-35.964-111.913-87.245l-38.142-152.474 0.154 406.221c0 21.208 17.214 38.4 38.449 38.4zM189.734 470.016c4.278 17.081 19.64 29.068 37.27 29.082h707.26c3.935-0.011 7.646-1.826 10.067-4.923s3.284-7.134 2.339-10.949l-89.715-358.349c-1.431-5.681-6.541-9.666-12.406-9.677h-727.203c-3.944-0.005-7.67 1.804-10.103 4.903s-3.301 7.145-2.355 10.969l84.845 338.944z" />
<glyph unicode="&#xe932;" glyph-name="list" d="M369.371 652.8c0 20.198 12.178 36.571 27.2 36.571h380.8c15.022 0 27.2-16.374 27.2-36.571s-12.178-36.571-27.2-36.571h-380.8c-15.022 0-27.2 16.374-27.2 36.571zM396.571 473.6c-15.022 0-27.2-16.374-27.2-36.571s12.178-36.571 27.2-36.571h380.8c15.022 0 27.2 16.374 27.2 36.571s-12.178 36.571-27.2 36.571h-380.8zM256 281.6c28.277 0 51.2-22.923 51.2-51.2s-22.923-51.2-51.2-51.2c-28.277 0-51.2 22.923-51.2 51.2s22.923 51.2 51.2 51.2zM777.371 268.8c15.022 0 27.2-16.374 27.2-36.571s-12.178-36.571-27.2-36.571v0h-380.8c-15.022 0-27.2 16.374-27.2 36.571s12.178 36.571 27.2 36.571v0zM256 486.4c28.277 0 51.2-22.923 51.2-51.2s-22.923-51.2-51.2-51.2c-28.277 0-51.2 22.923-51.2 51.2s22.923 51.2 51.2 51.2zM256 704c28.277 0 51.2-22.923 51.2-51.2s-22.923-51.2-51.2-51.2c-28.277 0-51.2 22.923-51.2 51.2s22.923 51.2 51.2 51.2zM841.143 960c100.989 0 182.857-81.868 182.857-182.857v-658.286c0-100.989-81.868-182.857-182.857-182.857h-658.286c-48.497 0-95.007 19.265-129.3 53.558s-53.558 80.803-53.558 129.3v658.286c0 100.989 81.868 182.857 182.857 182.857h658.286zM841.143 886.857h-658.286c-60.594 0-109.714-49.121-109.714-109.714v-658.286c0-60.594 49.121-109.714 109.714-109.714h658.286c60.594 0 109.714 49.121 109.714 109.714v658.286c0 60.594-49.121 109.714-109.714 109.714z" />
<glyph unicode="&#xe933;" glyph-name="person-info" d="M834.506 166.274c72.865 0 132.912-58.349 137.954-132.84l0.214-3.935 0.125-6.106v-55.488c0-17.621-13.826-31.905-30.881-31.905-15.001 0-27.673 11.106-30.376 26.241l-0.318 2.189-0.187 3.475v55.488c0 40.89-30.131 74.787-68.914 78.69l-3 0.241-4.617 0.14h-107.413c-39.577 0-72.386-31.13-76.163-71.2l-0.233-3.1-0.135-4.77v-55.488c0-17.621-13.826-31.905-30.881-31.905-15.001 0-27.673 11.106-30.376 26.241l-0.318 2.189-0.187 3.475v55.488c0 75.282 56.476 137.321 128.575 142.53l3.809 0.221 5.91 0.129h107.413zM696.089 960c18.207 0 33.618-13.492 36.094-31.598l0.34-4.974-0.049-36.523h36.435c60.367 0 109.304-49.121 109.304-109.714l0.012-258.279c-21.109 15.27-45.943 25.707-72.88 29.69l-0.001 228.54c0 9.708-3.845 19.017-10.689 25.877s-16.123 10.707-25.794 10.694h-583.244c-19.932-0.267-35.95-16.562-35.949-36.571l0.049-682.862c0-20.236 16.323-36.571 36.435-36.571l351.448 0.018v-73.139l-351.448-0.071c-60.367 0-109.304 49.121-109.304 109.714l-0.049 682.91c0 60.594 48.937 109.714 109.304 109.714l36.289 0.049v36.523c0.004 18.291 13.471 33.767 31.528 36.23l4.955 0.341c18.207 0 33.618-13.492 36.094-31.598l0.34-4.974-0.049-36.523h145.787v36.523c0.004 18.291 13.471 33.767 31.528 36.23l4.907 0.341c18.225 0.024 33.664-13.474 36.143-31.598l0.34-4.974-0.049-36.523h145.641v36.523c0.004 18.291 13.471 33.767 31.528 36.23l5.004 0.341zM453.096 277.333c19.154-0.006 35.033-14.897 36.339-34.079s-12.408-36.102-31.384-38.723l-4.955-0.341h-194.22c-19.154 0.006-35.033 14.897-36.339 34.079s12.408 36.102 31.384 38.723l4.955 0.341h194.22zM780.8 499.2c76.378 0 138.294-63.97 138.294-142.881s-61.916-142.881-138.294-142.881c-76.378 0-138.294 63.97-138.294 142.881s61.916 142.881 138.294 142.881zM780.8 439.551c-44.492 0-80.559-37.264-80.559-83.232s36.068-83.232 80.559-83.232c44.492 0 80.559 37.264 80.559 83.232s-36.068 83.232-80.559 83.232zM550.351 472.381c20.122 0 36.435-16.374 36.435-36.571 0-19.010-14.45-34.632-32.926-36.404l-3.509-0.167h-291.476c-20.122 0-36.435 16.374-36.435 36.571 0 19.010 14.45 34.632 32.926 36.404l3.509 0.167h291.476zM695.992 667.429c19.154-0.006 35.033-14.897 36.339-34.079s-12.408-36.102-31.384-38.723l-4.955-0.341h-437.117c-19.154 0.006-35.033 14.897-36.339 34.079s12.408 36.102 31.384 38.723l4.955 0.341h437.117z" />
<glyph unicode="&#xe934;" glyph-name="email-open" d="M480.017 930.58c9.681 4.974 21.139 5.097 30.924 0.332v0l473.15-230.4c11.887-5.788 19.43-17.851 19.43-31.072v0-665.6c0-19.087-15.473-34.56-34.56-34.56v0h-921.6c-19.087 0-34.56 15.473-34.56 34.56v0 665.6c0 12.954 7.244 24.82 18.767 30.74v0zM496.205 861.21l-414.285-212.838v-609.971h852.48v609.434l-438.195 213.376zM834.601 570.404c8.369-15.816 3.233-35.185-11.343-44.901l-3.040-1.81-311.334-164.745-340.451 164.162c-17.193 8.29-24.41 28.948-16.119 46.141 7.772 16.118 26.414 23.468 42.88 17.493l3.26-1.374 308.964-148.967 280.472 148.384c16.871 8.927 37.784 2.488 46.711-14.383z" />
<glyph unicode="&#xe935;" glyph-name="world" d="M524.8-89.6c289.839 0 524.8 234.961 524.8 524.8s-234.961 524.8-524.8 524.8c-289.839 0-524.8-234.961-524.8-524.8s234.961-524.8 524.8-524.8zM524.8 894.4c43.099 0 92.299-38.704 132.643-125.165 14.235-30.57 26.634-65.731 36.67-104.435h-338.627c10.037 38.704 22.435 73.866 36.736 104.435 40.213 86.461 89.413 125.165 132.578 125.165zM332.723 796.984c-19.371-42.431-34.383-86.72-44.805-132.184h-160.917c55.382 95.719 143.351 168.32 247.837 204.541-15.81-21.648-29.914-46.182-42.115-72.357zM274.995 599.2c-8.49-54.252-12.701-109.088-12.595-164 0-57.072 4.395-112.307 12.661-164h-179.285c-20.006 52.36-30.234 107.948-30.176 164 0 57.728 10.693 113.094 30.176 164h179.219zM287.918 205.6c11.546-48.741 26.699-93.283 44.805-132.184 12.202-26.174 26.306-50.709 42.115-72.357-104.486 36.221-192.455 108.822-247.837 204.541h160.917zM355.486 205.6h338.627c-9.037-35.859-21.333-70.816-36.736-104.435-40.213-86.461-89.413-125.165-132.578-125.165-43.099 0-92.299 38.704-132.643 125.165-15.356 33.625-27.608 68.582-36.605 104.435h-0.066zM708.086 271.2h-366.573c-9.116 54.188-13.636 109.050-13.516 164 0 57.925 4.791 113.16 13.516 164h366.573c8.725-50.84 13.514-106.075 13.514-164s-4.789-113.16-13.514-164v0zM761.682 205.6h160.917c-55.382-95.719-143.351-168.32-247.837-204.541 15.81 21.648 29.914 46.182 42.115 72.357 18.106 38.901 33.259 83.443 44.805 132.184v0zM953.89 271.2h-179.35c8.266 51.693 12.661 106.928 12.661 164s-4.395 112.307-12.661 164h179.285c19.483-50.906 30.176-106.272 30.176-164s-10.693-113.094-30.176-164h0.066zM674.762 869.341c104.489-36.216 192.459-108.818 247.837-204.541h-160.982c-10.423 45.464-25.435 89.753-44.805 132.184-11.681 25.416-25.784 49.647-42.115 72.357h0.066z" />
<glyph unicode="&#xe936;" glyph-name="form-configurator" d="M947.2 473.6c42.415 0 76.8-34.385 76.8-76.8v-230.4c0-5.062-0.49-10.009-1.424-14.797-0.431 3.503-0.956 6.978-1.572 10.42 1.967-11.052 2.996-22.417 2.996-34.023 0-106.039-85.961-192-192-192-93.082 0-170.694 66.238-188.27 154.15l0.114-0.566-567.044 0.015c-42.415 0-76.8 34.385-76.8 76.8v230.4c0 42.415 34.385 76.8 76.8 76.8h870.4zM832 243.2c-8.299 0-15.026-6.727-15.026-15.026v-85.148h-85.148c-8.299 0-15.026-6.727-15.026-15.026s6.727-15.026 15.026-15.026h85.148v-85.148c0-8.299 6.727-15.026 15.026-15.026s15.026 6.727 15.026 15.026v85.148h85.148c8.299 0 15.026 6.727 15.026 15.026s-6.727 15.026-15.026 15.026h-85.148v85.148c0 8.299-6.727 15.026-15.026 15.026zM947.2 396.8h-870.4v-230.4l567.039-0.010-0.221-1.106c17.356 88.194 95.1 154.717 188.382 154.717 43.469 0 83.564-14.445 115.746-38.798l-0.534 0.402-0.012 115.195zM947.2 960c42.415 0 76.8-34.385 76.8-76.8v-230.4c0-42.415-34.385-76.8-76.8-76.8h-870.4c-42.415 0-76.8 34.385-76.8 76.8v230.4c0 42.415 34.385 76.8 76.8 76.8h870.4zM947.2 883.2h-870.4v-230.4h870.4v230.4z" />
<glyph unicode="&#xe937;" glyph-name="stats" d="M73.143 960v-950.857h950.857v-73.143h-950.857c-40.396 0-73.143 32.747-73.143 73.143v950.857h73.143zM365.714 448v-365.714h-73.143v365.714h73.143zM256 228.571v-146.286h-73.143v146.286h73.143zM950.857 740.571v-658.286h-73.143v658.286h73.143zM841.143 521.143v-438.857h-73.143v438.857h73.143zM548.571 594.286v-512h-73.143v512h73.143zM658.286 374.857v-292.571h-73.143v292.571h73.143z" />
<glyph unicode="&#xe938;" glyph-name="signature" d="M653.13 204.76c67.007 0 93.133-29.691 112.958-95.489l3.484-12.070c9.375-33.459 14.959-43.492 26.28-48.126 13.268-5.449 22.079-4.685 36.013 2.445l7.531 4.176c2.715 1.63 5.635 3.514 9.016 5.704l33.964 22.968c31.557 20.626 59.937 34.274 94.414 42.83 20.445 4.771 40.956-7.662 46.052-27.915s-7.109-40.822-27.405-46.184c-20.753-5.241-40.559-13.66-58.708-24.954l-15.266-9.676-24.59-16.704c-9.563-6.676-19.538-12.748-29.866-18.181-32.94-16.806-65.060-19.658-100.407-5.093-38.216 15.584-53.585 39.672-67.98 87.595l-7.992 27.653c-9.272 29.996-15.625 34.631-37.499 34.631-15.881 0-32.274-7.894-54.763-26.635l-9.426-8.199-47.181-44.561c-72.129-67.428-133.655-100.174-221.716-100.174-86.371 0-161.062 12.936-223.765 39.163l150.97 40.945c22.899-2.445 47.181-3.718 72.795-3.718 60.603 0 104.096 21.135 158.142 69.414l13.217 12.172 27.253 25.973c12.090 11.56 21.209 19.862 30.327 27.501 35.040 29.181 66.853 44.51 104.147 44.51v0zM872.387 893.806c71.551-71.172 71.551-186.52 0-257.692l-14.754-14.769c58.964-71.298 56.863-146.976 1.998-201.672l-102.508-101.854c-15.023-14.907-39.358-14.884-54.353 0.051s-14.972 39.127 0.051 54.034l102.405 101.753c24.846 24.802 27.663 55.511-2.049 93.655l-441.434-438.942c-14.197-14.113-31.856-24.295-51.228-29.538l-262.033-71.043c-13.296-3.586-27.506 0.179-37.243 9.869s-13.509 23.82-9.887 37.035l71.412 260.544c5.282 19.24 15.523 36.777 29.712 50.876l510.695 507.694c34.376 34.187 81.009 53.394 129.633 53.394s95.257-19.207 129.633-53.394h-0.051zM667.474 839.823l-510.644-507.744c-4.723-4.702-8.131-10.547-9.887-16.959l-53.79-196.070 197.229 53.474c6.424 1.791 12.268 5.213 16.957 9.931l510.746 507.643c41.59 41.346 41.59 108.38 0 149.726s-109.021 41.346-150.611 0z" />
<glyph unicode="&#xe939;" glyph-name="report" d="M734.825 957.575c13.822-5.309 23.392-18.727 23.396-34.147v0-36.523h36.289c60.367 0 109.304-49.121 109.304-109.714v-272.433l-0.031 0.022-0.018-461.749c0-58.811-46.101-106.815-104.008-109.543l-5.296-0.122h-582.709c-60.367-0.049-109.304 49.072-109.304 109.666l-0.049 734.11 0.126 5.316c2.762 58.173 50.586 104.447 109.177 104.447v0h36.289v36.523c0.003 14.295 8.229 26.87 20.443 32.859 0.111 0.013 0.205 0.059 0.299 0.104 0.817 0.432 1.669 0.802 2.539 1.139 0.18 0.041 0.342 0.103 0.505 0.164 0.79 0.321 1.612 0.594 2.447 0.837 0.285 0.066 0.567 0.146 0.85 0.222 0.733 0.21 1.478 0.383 2.231 0.533 0.363 0.066 0.73 0.134 1.099 0.197 0.372 0.067 0.744 0.124 1.117 0.174l0.67 0.084c1.423 0.17 2.869 0.257 4.333 0.257h0.097l3.233-0.156c0.319-0.030 0.638-0.063 0.955-0.101l0.719-0.084c0.399-0.054 0.796-0.115 1.191-0.182 0.278-0.061 0.577-0.117 0.875-0.176 0.886-0.157 1.738-0.356 2.578-0.584 0.11-0.059 0.238-0.095 0.366-0.132 15.49-4.362 26.515-18.606 26.518-35.155v0-36.523h145.592v36.523c0 1.498 0.091 2.977 0.267 4.431l0.073 0.543c0.041 0.303 0.086 0.604 0.135 0.904 0.084 0.541 0.185 1.088 0.298 1.631 0.118 0.552 0.245 1.097 0.384 1.637 0.127 0.505 0.268 1.009 0.42 1.509 0.185 0.606 0.383 1.205 0.596 1.796 0.141 0.388 0.287 0.774 0.44 1.156 0.276 0.698 0.574 1.382 0.892 2.055 0.13 0.266 0.259 0.531 0.392 0.795 0.326 0.659 0.677 1.308 1.046 1.944 0.198 0.329 0.393 0.654 0.594 0.975 0.348 0.57 0.715 1.125 1.097 1.669 0.284 0.393 0.572 0.788 0.869 1.176 0.335 0.45 0.689 0.891 1.052 1.324 0.298 0.346 0.588 0.679 0.884 1.007 0.48 0.54 0.994 1.075 1.523 1.594 0.182 0.172 0.349 0.333 0.517 0.492 0.629 0.599 1.281 1.173 1.953 1.722 0.127 0.1 0.256 0.203 0.385 0.306 0.662 0.531 1.346 1.037 2.046 1.518 0.301 0.203 0.598 0.4 0.897 0.594 0.539 0.352 1.093 0.689 1.657 1.011 0.424 0.238 0.858 0.475 1.298 0.703 0.517 0.273 1.037 0.528 1.564 0.77 0.395 0.175 0.789 0.348 1.187 0.513 0.679 0.291 1.38 0.558 2.090 0.804 0.286 0.090 0.56 0.181 0.836 0.268 0.792 0.263 1.613 0.494 2.444 0.696 0.243 0.048 0.466 0.099 0.689 0.149 0.848 0.201 1.728 0.364 2.619 0.494 0.14 0.009 0.261 0.026 0.383 0.043 1.763 0.24 3.348 0.344 4.955 0.341h0.063l3.271-0.152c0.458-0.042 0.914-0.092 1.367-0.151 0.327-0.055 0.449-0.072 0.57-0.090 0.923-0.124 1.818-0.29 2.701-0.488 0.168-0.049 0.347-0.091 0.526-0.134 0.892-0.203 1.764-0.448 2.623-0.725 0.22-0.080 0.443-0.154 0.664-0.23 0.76-0.252 1.504-0.535 2.236-0.842 0.341-0.15 0.682-0.299 1.020-0.452 0.556-0.247 1.11-0.517 1.656-0.8 0.487-0.257 0.964-0.518 1.434-0.789 0.51-0.29 1.007-0.593 1.496-0.907 0.309-0.203 0.625-0.412 0.936-0.626 0.708-0.483 1.391-0.988 2.056-1.517 0.135-0.112 0.272-0.222 0.407-0.333 0.581-0.471 1.147-0.964 1.697-1.474 0.317-0.299 0.64-0.611 0.958-0.928 0.444-0.437 0.859-0.872 1.263-1.317 0.301-0.34 0.615-0.699 0.922-1.065 0.377-0.44 0.73-0.882 1.074-1.332 0.307-0.412 0.613-0.832 0.91-1.258 0.321-0.449 0.628-0.911 0.924-1.379 0.26-0.421 0.518-0.849 0.768-1.282 0.323-0.551 0.624-1.106 0.911-1.669 0.195-0.391 0.391-0.794 0.579-1.2 0.267-0.567 0.515-1.14 0.748-1.721 0.166-0.417 0.327-0.837 0.48-1.261 0.213-0.591 0.412-1.19 0.595-1.796 0.156-0.508 0.299-1.020 0.431-1.537 0.133-0.53 0.257-1.066 0.37-1.608 0.117-0.544 0.218-1.091 0.307-1.642 0.043-0.291 0.088-0.592 0.13-0.895l0.073-0.543c0.176-1.454 0.267-2.933 0.267-4.431v0-36.523h145.592v36.523c0.004 16.517 10.985 30.738 26.411 35.155 0.198 0.026 0.369 0.074 0.54 0.122 0.833 0.254 1.706 0.456 2.591 0.627 0.239 0.031 0.478 0.075 0.718 0.118 0.42 0.086 0.843 0.151 1.268 0.209l0.737 0.086c1.417 0.168 2.857 0.255 4.315 0.255h0.080l3.25-0.156c0.319-0.030 0.638-0.063 0.955-0.101l0.67-0.084c0.373-0.051 0.745-0.107 1.114-0.169 0.372-0.068 0.739-0.136 1.104-0.21 0.751-0.142 1.495-0.315 2.23-0.511 0.282-0.091 0.563-0.17 0.844-0.253 0.862-0.234 1.706-0.515 2.535-0.824l-0.008-0.025zM794.461 6.51c20.112 0 36.435 16.335 36.435 36.571v0l0.049 734.062c0 0.017 0 0.035 0 0.052 0 2.314-0.228 4.656-0.673 6.945-0.296 1.569-0.7 3.108-1.197 4.603-0.262 0.753-0.537 1.497-0.836 2.232l0.836-2.232c-0.348 1.047-0.743 2.073-1.181 3.075l0.345-0.843c-0.43 1.055-0.908 2.091-1.435 3.102l1.090-2.259c-0.494 1.132-1.044 2.234-1.646 3.303l0.556-1.044c-0.506 0.972-1.055 1.922-1.648 2.847l1.092-1.803c-0.599 1.064-1.25 2.095-1.95 3.090l0.858-1.287c-0.66 1.030-1.372 2.028-2.136 2.992l1.278-1.705c-0.614 0.873-1.265 1.718-1.951 2.533l0.673-0.828c-0.736 0.928-1.519 1.823-2.348 2.682l1.675-1.854c-1.531 1.818-3.235 3.484-5.088 4.972-0.48 0.38-0.964 0.749-1.457 1.105l1.457-1.105c-1 0.804-2.044 1.555-3.127 2.251l1.669-1.146c-0.896 0.648-1.819 1.253-2.766 1.814l1.096-0.668c-0.863 0.555-1.751 1.074-2.662 1.556l1.566-0.888c-3.501 2.075-7.328 3.55-11.322 4.358-0.294 0.068-0.572 0.121-0.852 0.17l0.852-0.17c-2.37 0.48-4.798 0.725-7.252 0.722h-582.709c-2.102 0.003-4.186-0.177-6.231-0.53-0.367-0.055-0.724-0.122-1.080-0.194l1.080 0.194c-3.768-0.651-7.402-1.893-10.77-3.67-0.419-0.21-0.826-0.435-1.228-0.668l1.228 0.668c-1.003-0.529-1.983-1.106-2.935-1.729l1.708 1.061c-0.967-0.56-1.906-1.163-2.814-1.807l1.107 0.746c-0.992-0.649-1.955-1.348-2.885-2.095l1.779 1.349c-1.863-1.321-3.597-2.813-5.179-4.452-0.57-0.593-1.129-1.213-1.664-1.85l1.664 1.85c-0.819-0.849-1.598-1.738-2.333-2.664l0.669 0.814c-0.687-0.817-1.336-1.661-1.946-2.529l1.277 1.716c-0.763-0.961-1.479-1.962-2.145-2.999l0.867 1.283c-0.703-1.002-1.354-2.036-1.951-3.099l1.084 1.816c-0.588-0.916-1.136-1.861-1.643-2.831l0.559 1.015c-0.53-0.943-1.017-1.908-1.461-2.893l0.902 1.878c-0.565-1.083-1.078-2.198-1.535-3.342l0.633 1.464c-2.114-4.692-3.238-9.824-3.238-15.073 0 0.035 0 0.017 0 0l0.049-734.062c0-20.236 16.323-36.571 36.435-36.571zM503.029 365.967c20.198 0 36.571-16.312 36.571-36.435v0-137.876c0-20.122-16.374-36.435-36.571-36.435s-36.571 16.312-36.571 36.435v0 137.876c0 20.122 16.374 36.435 36.571 36.435zM734.307 493.231l0.341-4.955v-296.62c-0.006-19.154-14.897-35.033-34.079-36.339s-36.102 12.408-38.723 31.384l-0.341 4.955v296.62c0.006 19.154 14.897 35.033 34.079 36.339s36.102-12.408 38.723-31.384zM344.211 582.528l0.341-4.955v-385.917c-0.006-19.154-14.897-35.033-34.079-36.339s-36.102 12.408-38.723 31.384l-0.341 4.955v385.917c0.006 19.154 14.897 35.033 34.079 36.339s36.102-12.408 38.723-31.384z" />
<glyph unicode="&#xe93a;" glyph-name="db-import" d="M310.399 439.041l1.96-1.861 214.855-219.645c13.219-13.514 13.82-34.861 1.803-49.087l-1.803-1.982-214.855-219.645c-13.98-14.292-36.799-14.446-50.967-0.343-13.524 13.461-14.278 35.047-2.159 49.411l1.819 2.001 154.284 157.758-379.294-0.003c-19.904 0-36.040 16.277-36.040 36.355 0 19.242 14.819 34.992 33.573 36.271l2.468 0.084 379.32 0.023-154.309 157.733c-13.345 13.642-13.813 35.236-1.505 49.436l1.845 1.977c13.524 13.461 34.931 13.933 49.008 1.518zM640 934.4c99.984 0 192.192-18.337 260.784-49.516 34.272-15.565 64.224-35.021 86.064-58.465 22.032-23.688 37.152-53.018 37.152-86.579v-583.68c0-33.562-15.12-62.892-37.152-86.579-21.84-23.444-51.792-42.949-86.064-58.514-68.592-31.13-160.8-49.467-260.784-49.467-77.712 0-150.726 11.078-211.605 30.629l58.132 59.435c45.208-10.795 97.416-17.105 153.473-17.105 92.208 0 174 17.024 231.36 43.095 28.704 13.036 49.728 27.628 63.12 42.025 13.2 14.106 17.52 26.412 17.52 36.48l0.025 173.248c-79.872-61.102-184.392-91.473-312.025-91.473-22.69 0-44.713 0.959-66.062 2.878-2.906 4.424-6.296 8.612-10.124 12.525l-80.032 81.748c46.505-13.556 98.517-20.35 156.218-20.35 137.769 0 239.504 38.671 308.135 115.325l3.852 4.474 0.013 188.959c-15.36-10.701-32.64-20.283-51.216-28.698-68.592-31.178-160.8-49.516-260.784-49.516s-192.192 18.337-260.784 49.516c-17.885 7.993-35.026 17.597-51.216 28.698l-0.013-134.694c-22.323 12.048-48.686 13.6-72.011 4.808l0.023 246.233c0 33.562 15.12 62.892 37.152 86.579 21.84 23.444 51.792 42.949 86.064 58.465 68.592 31.178 160.8 49.516 260.784 49.516zM640 861.44c-92.208 0-174-17.024-231.36-43.095-28.704-13.036-49.728-27.628-63.12-42.025-13.2-14.106-17.52-26.412-17.52-36.48s4.32-22.374 17.52-36.48c13.392-14.397 34.416-28.989 63.12-42.025 57.36-26.022 139.152-43.095 231.36-43.095s174 17.024 231.36 43.095c28.704 13.036 49.728 27.628 63.12 42.025 13.2 14.106 17.52 26.412 17.52 36.48s-4.32 22.374-17.52 36.48c-13.392 14.397-34.416 28.989-63.12 42.025-57.36 26.022-139.2 43.095-231.36 43.095z" />
<glyph unicode="&#xe93b;" glyph-name="diamond" d="M804.971 908.8c23.678-0.026 45.709-11.893 58.182-31.391v0l150.399-233.885c15.286-23.821 13.681-54.339-4.046-76.575v0l-443.286-553.92c-12.985-16.309-33.020-25.829-54.22-25.829s-41.235 9.52-54.169 25.765v0l-443.375 554.032c-17.689 22.188-19.294 52.706-3.991 76.553v0l150.34 233.793c12.515 19.564 34.547 31.431 58.224 31.457v0zM932.915 579.046h-192.23l-162.278-442.982 354.509 442.982zM283.29 579.046h-192.205l354.458-442.931-162.253 442.931zM668.518 579.046h-313.062l156.518-427.238 156.544 427.238zM188.57 795.725l-96.691-150.323h163.533l-66.842 150.323zM835.405 795.699l-66.842-150.298h163.507l-96.666 150.298zM512 820.813l-136.576-175.411h273.126l-136.55 175.411zM782.106 842.47h-201.6l128.303-164.796 73.297 164.796zM443.469 842.47h-201.6l73.297-164.796 128.303 164.796z" />
<glyph unicode="&#xe93c;" glyph-name="check-circle" d="M512 960c282.77 0 512-229.23 512-512s-229.23-512-512-512c-282.77 0-512 229.23-512 512s229.23 512 512 512zM816.324 661.21c-21.454 21.977-57.014 23.012-79.773 2.351v0l-360.947-328.099-98.996 96.925-3.335 3.1c-13.803 11.803-32.979 16.382-51.141 11.918-19.815-4.869-35.501-19.788-40.922-39.165-5.464-19.531 0.407-40.373 15.229-54.422v0l134.102-131.296 3.456-3.136c23.658-19.894 59.219-19.506 82.43 1.581v0l400.626 364.472c20.042 21.274 20.059 54.461-0.73 75.77z" />
<glyph unicode="&#xe93d;" glyph-name="partner" d="M522.338 85.861c-8.377-8.299-23.269-9.682-33.041 0-9.074 9.060-9.074 23.674 0 32.733l157.761 156.291-65.617 65.006-157.761-156.291c-8.842-9.221-23.734-8.76-33.041 0-9.074 9.060-9.074 23.674 0 32.733l157.761 156.291-65.617 65.006-157.761-156.291c-8.377-8.299-23.269-9.682-33.041 0-8.853 9.149-8.853 23.585 0 32.733l157.761 156.291-66.083 65.006-157.761-156.291c-8.377-8.299-23.269-9.682-33.041 0-8.853 9.149-8.853 23.585 0 32.733l203.832 201.933 87.024-85.752c44.21-43.798 120.531-43.337 164.741 0 45.606 45.181 45.606 118.025 0 163.206l-86.559 85.752 13.030 12.909c36.299 35.961 95.401 35.961 131.7 0l197.317-195.479c36.299-35.961 36.299-94.512 0-130.473l-381.604-378.048zM969.559 398.443c72.588 72.119 72.588 188.827 0 260.945l-197.317 195.479c-72.797 71.911-190.603 71.911-263.4 0l-13.030-12.909-13.030 12.909c-72.797 71.911-190.603 71.911-263.4 0l-164.741-163.206c-65.059-64.233-72.971-165.926-18.615-239.277l67.479 66.85c-18.459 35.705-11.497 79.137 17.219 107.421l164.741 163.206c36.299 35.961 95.401 35.961 131.7 0l165.672-164.128c8.377-8.299 9.773-23.052 0-32.733s-24.665-8.299-33.041 0l-153.107 151.219-269.915-266.939c-45.606-44.72-45.606-118.025 0-163.206 18.149-17.98 41.418-29.045 66.083-32.272 6.701-50.978 47.201-91.101 98.659-97.739 6.701-50.978 47.201-91.101 98.659-97.739 3.258-24.896 14.427-47.487 32.576-65.467 21.872-21.669 51.191-33.656 82.371-33.656s60.498 11.987 82.371 33.656l382.070 377.587z" />
<glyph unicode="&#xe93e;" glyph-name="health-check" d="M675.2 928c24.742 0 44.8-20.058 44.8-44.8 0-23.505-18.102-42.783-41.126-44.651l-3.674-0.149h-489.6c-33.932 0-61.697-26.407-63.864-59.792l-0.136-4.208v-652.8c0-33.932 26.407-61.697 59.792-63.864l4.208-0.136h652.8c33.932 0 61.697 26.407 63.864 59.792l0.136 4.208v326.4c0 24.742 20.058 44.8 44.8 44.8 23.505 0 42.783-18.102 44.651-41.126l0.149-3.674v-326.4c0-82.903-65.679-150.466-147.842-153.494l-5.758-0.106h-652.8c-82.903 0-150.466 65.679-153.494 147.842l-0.106 5.758v652.8c0 82.903 65.679 150.466 147.842 153.494l5.758 0.106h489.6zM978.878 806.078c16.466-16.466 17.435-42.562 2.906-60.161l-2.906-3.196-435.2-435.2c-16.466-16.466-42.562-17.435-60.161-2.906l-3.196 2.906-163.2 163.2c-17.495 17.495-17.495 45.861 0 63.357 16.466 16.466 42.562 17.435 60.161 2.906l3.196-2.906 131.522-131.518 403.522 403.518c17.495 17.495 45.861 17.495 63.357 0z" />
<glyph unicode="&#xe93f;" glyph-name="vikar" d="M411.429 355.84c122.915 0 223.169-97.796 228.36-220.406l0.211-9.994v-92.16c0-25.449-20.467-46.080-45.714-46.080-23.444 0-42.766 17.789-45.407 40.706l-0.308 5.374v92.16c0 73.621-57.093 133.801-129.085 138.005l-8.058 0.235h-182.857c-73.037 0-132.739-57.55-136.91-130.117l-0.233-8.123v-92.16c0-25.449-20.467-46.080-45.714-46.080-23.444 0-42.766 17.789-45.407 40.706l-0.308 5.374v92.16c0 123.898 97.020 224.954 218.656 230.187l9.915 0.213h182.857zM320 908.8c126.237 0 228.571-103.154 228.571-230.4s-102.335-230.4-228.571-230.4c-126.237 0-228.571 103.154-228.571 230.4s102.335 230.4 228.571 230.4zM320 816.64c-75.742 0-137.143-61.892-137.143-138.24s61.401-138.24 137.143-138.24c75.742 0 137.143 61.892 137.143 138.24s-61.401 138.24-137.143 138.24zM681.264 757.164l2.57 0.069 292.238-2.856c17.98-0.176 32.725-14.111 34.188-31.76l0.118-2.545 2.856-292.238c0.186-19.015-15.078-34.486-34.093-34.554-18.15-0.065-33.158 13.927-34.646 31.738l-0.12 2.569-2.082 209.867-255.42-255.424c-13.404-13.404-35.205-13.337-48.692 0.151-12.926 12.926-13.526 33.486-1.756 46.974l1.605 1.718 255.424 255.456-209.867 2.046c-18.151 0.177-32.972 14.368-34.222 32.195l-0.085 2.57c0.065 18.15 14.164 32.883 31.984 34.023z" />
<glyph unicode="&#xe940;" glyph-name="costs" d="M778.24 780.8c22.618 0 40.96-18.151 40.96-40.533v0-164.267h-61.44v62.933c-43.688 0-79.381 33.83-81.79 76.466l-0.13 4.601h-532.48c0-44.777-36.672-81.067-81.92-81.067v0-202.667c45.248 0 81.92-36.29 81.92-81.067v0l382.72 0.026 1.638-60.826h-486.758c-21.361 0-38.909 16.191-40.793 36.845l-0.167 3.689v405.333c0 22.382 18.342 40.533 40.96 40.533v0zM409.6 679.467c67.866 0 122.88-63.511 122.88-141.867 0-78.369-55.040-141.867-122.88-141.867-67.866 0-122.88 63.523-122.88 141.867 0 78.356 55.014 141.867 122.88 141.867zM419.84 618.667h-17.382c-6.064 0-11.992-1.776-17.037-5.105v0l-19.622-12.945c-2.261-1.489-3.831-3.806-4.364-6.441s0.015-5.371 1.522-7.607v0l11.366-16.859c1.504-2.237 3.846-3.791 6.509-4.318s5.428 0.014 7.687 1.506v0l0.602 0.393v-70.224h-20.48c-5.658 0-10.24-4.535-10.24-10.133v0-20.267c0-5.599 4.582-10.133 10.24-10.133v0h81.92c5.658 0 10.24 4.535 10.24 10.133v0 20.267c0 5.599-4.582 10.133-10.24 10.133v0h-20.48v111.467c0 5.599-4.582 10.133-10.24 10.133v0zM563.2 240.72v-52.793c0-43.644 103.2-79.127 230.4-79.127s230.4 35.484 230.4 79.127v52.793c-49.56-35.978-140.16-52.793-230.4-52.793s-180.84 16.815-230.4 52.793zM563.2 370.415v-63.796c0-43.644 103.2-79.127 230.4-79.127s230.4 35.484 230.4 79.127v63.796c-49.56-42.036-140.28-63.796-230.4-63.796s-180.84 21.76-230.4 63.796zM793.6 544c-127.2 0-230.4-44.262-230.4-98.909s103.2-98.909 230.4-98.909c127.2 0 230.4 44.262 230.4 98.909s-103.2 98.909-230.4 98.909z" />
<glyph unicode="&#xe941;" glyph-name="invoice" d="M646.095 917.333c74.059 0 134.095-60.036 134.095-134.095v-469.333h201.143v-134.095c0-111.088-90.055-201.143-201.143-201.143h-536.381c-111.088 0-201.143 90.055-201.143 201.143v603.429c0 74.059 60.036 134.095 134.095 134.095h469.333zM914.286 246.857h-134.095v-201.143c74.059 0 134.095 60.036 134.095 134.095v67.048zM646.095 850.286h-469.333c-37.029 0-67.048-30.018-67.048-67.048v-603.429c0-74.059 60.036-134.095 134.095-134.095h469.333v737.524c0 37.029-30.018 67.048-67.048 67.048zM350.462 506.182l-0.041-31.387 9.233-0.848c12.138-1.525 23.201-4.576 33.188-9.152 14.982-6.864 26.732-16.359 35.25-28.486s12.932-26.073 13.24-41.837v0h-48.654l-0.975 5.743c-2.189 9.202-7.201 16.561-15.034 22.076v0l-4.936 3.033c-5.171 2.757-11.049 4.688-17.634 5.791v0l-3.679 0.416v-77.568l12.695-3.127 10.417-2.739c6.859-2.016 13.545-4.412 20.061-7.187 9.773-4.163 18.527-9.422 26.264-15.777s13.877-14.032 18.423-23.032c4.545-9 6.836-19.555 6.871-31.664-0.036-16.401-4.231-30.801-12.586-43.201s-20.419-22.082-36.192-29.045v0l-8.159-3.192c-8.433-2.902-17.684-4.933-27.755-6.093v0l-10.038-0.831 0.041-30.984h-22.364l-0.034 30.941-9.592 0.837c-13.198 1.499-25.121 4.497-35.77 8.994-15.973 6.746-28.446 16.573-37.419 29.482s-13.805 28.619-14.495 47.129v0h49.747l0.708-5.649c1.307-7.269 4.066-13.481 8.277-18.637 5.264-6.445 12.164-11.263 20.701-14.455v0l6.587-2.094c2.257-0.598 4.576-1.097 6.957-1.496v0l4.299-0.549v82.091l-15.458 4.095-9.554 2.719c-18.516 5.813-33.486 13.87-44.91 24.172-13.327 12.018-19.973 28.037-19.938 48.055-0.036 16.473 4.415 30.877 13.351 43.213s21.136 21.945 36.6 28.827v0l7.901 3.154c8.070 2.868 16.649 4.875 25.735 6.022v0l6.272 0.595 0.034 31.643h22.364zM350.421 307.797v-76.075l3.85 0.475c4.832 0.834 9.334 2.085 13.506 3.753 8.345 3.336 14.881 7.99 19.609 13.963s7.109 12.923 7.146 20.849c-0.037 7.273-2.146 13.3-6.328 18.082s-10.027 8.782-17.536 12v0l-7.93 3.106c-2.784 0.998-5.708 1.959-8.773 2.882v0l-3.545 0.965zM328.064 431.36l-2.759-0.322c-4.516-0.786-8.653-1.966-12.412-3.539-7.518-3.146-13.29-7.455-17.317-12.927s-6.059-11.699-6.096-18.681c-0.072-5.818 1.25-10.859 3.968-15.123s6.386-7.873 11.004-10.827c4.618-2.955 9.745-5.446 15.381-7.473v0l8.231-2.746v71.637zM545.524 716.19c18.515 0 33.524-15.009 33.524-33.524s-15.009-33.524-33.524-33.524h-268.19c-18.515 0-33.524 15.009-33.524 33.524s15.009 33.524 33.524 33.524h268.19z" />
</font>
</defs>
</svg>
